Анастасия / Anastasia (Анатоль Литвак / Anatole Litvak) MVO (DVDМагия) + MVO (1-й канал) + Sub Eng + Original Eng - Скачать

Страна: США
Студия: Twentieth Century Fox Film Corporation
Жанр: драма, биография, история,
Год выпуска: 1956
Продолжительность: 01:45:14

Перевод 1: Профессиональный (многоголосый закадровый) DVDМагия
Перевод 2: Профессиональный (многоголосый закадровый) 1-й канал
Субтитры: английские
Оригинальная аудио дорожка: английская

Режиссер: Анатоль Литвак / Anatole Litvak

В ролях: Ингрид Бергман, Юл Бриннер, Хелен Хэйес, Аким Тамирофф, Мартита Хант, Феликс Эйлмер, Саша Питоефф, Иван Десни, Натали Шафер, Грегуар Громофф, Карел Степанек, Ина Де Ла Хэй, Кэтерин Кэт, Пауль Бильдт, Алексис Бобринской, Маргарит Бреннан, Паула Каттон, Аллан Катбертсон, Эдвард Форсайт, Мелвин Хэйес

Описание: Выдает ли она себя за дочь последнего русского царя или действительно это она? После блестящей игры Ингрид Бергман ни у кого из зрителей не оставалось сомнений в том, что Анастасия и есть потерянная и несчастная дочь убитого Николая II.

Доп. информация: Навигация по главам, как на Remux.

Сэмпл:http://sendfile.su/1301397

Тип релиза: BDRip 720p
Контейнер: MKV
Видео кодек: H.264
Аудио кодек: DTS, AC-3
Видео: MPEG4/AVC, 1280x542 p, 2.35:1, 23.976 (24000/1001) FPS, 10.6 Mb/s
Аудио 1: RUS / MVO, DTS, 48.0 kHz, 5.1, 1509 kb/s | закадровый, DVDМагия
Аудио 2: RUS / MVO, AC-3, 48.0 kHz, 2.0, 192 kb/s | закадровый, 1-й канал
Аудио 3: ENG / нет, DTS, 48.0 kHz, 5.1, 1509 kb/s | оригинал
Формат субтитров: softsub (SRT)
:

видео, высокое качество, бесплатно, полная версия, скачать, download, субтитры, на русском, hd, фильм, оригинал, кино, fullhd, torrent, торрент, subs

x264 [info]: profile High, level 4.1
---x264 [info]: frame I:780 Avg QP:14.38 size:147662
---x264 [info]: frame P:25517 Avg QP:15.63 size: 80751
---x264 [info]: frame B:125101 Avg QP:17.00 size: 51238
Формат : Matroska
Версия формата : Version 2
Размер файла : 10,4 Гбайт
Продолжительность : 1 ч. 45 м.
Общий поток : 14,1 Мбит/сек
Название фильма : Anastasia.1956 - Rip from Rutracker <<LION1234>>
Дата кодирования : UTC 2017-01-22 08:28:01
Программа кодирования : mkvmerge v7.6.0 ('Garden of Dreams') 32bit built on Feb 11 2015 00:18:47
Библиотека кодирования : libebml v1.3.1 + libmatroska v1.4.2
Видео
Идентификатор : 1
Формат : AVC
Формат/Информация : Advanced Video Codec
Профиль формата : [email protected]
Параметр CABAC формата : Да
Параметр ReFrames формата : 12 кадров
Идентификатор кодека : V_MPEG4/ISO/AVC
Продолжительность : 1 ч. 45 м.
Битрейт : 10,6 Мбит/сек
Ширина : 1280 пикселей
Высота : 542 пикселя
Соотношение сторон : 2,35:1
Режим частоты кадров : Постоянный
Частота кадров : 23,976 (24000/1001) кадра/сек
Цветовое пространство : YUV
Субдискретизация насыщенности : 4:2:0
Битовая глубина : 8 бит
Тип развёртки : Прогрессивная
Бит/(Пиксели*Кадры) : 0.637
Размер потока : 7,79 Гбайт (75%)
Заголовок : Anastasia.1956 - Rip from Rutracker <<LION1234>>
Библиотека кодирования : x264 core 148 r2744 b97ae06
Настройки программы : cabac=1 / ref=12 / deblock=1:-2:-2 / analyse=0x3:0x113 / me=umh / subme=10 / psy=1 / psy_rd=1.15:0.10 / mixed_ref=1 / me_range=24 / chroma_me=1 / trellis=2 / 8x8dct=1 / cqm=0 / deadzone=21,11 / fast_pskip=1 / chroma_qp_offset=-3 / threads=6 / lookahead_threads=1 / sliced_threads=0 / nr=0 / decimate=0 / interlaced=0 / bluray_compat=0 / constrained_intra=0 / bframes=16 / b_pyramid=2 / b_adapt=2 / b_bias=0 / direct=1 / weightb=1 / open_gop=0 / weightp=2 / keyint=250 / keyint_min=23 / scenecut=40 / intra_refresh=0 / rc_lookahead=60 / rc=crf / mbtree=0 / crf=15.3 / qcomp=0.67 / qpmin=0 / qpmax=69 / qpstep=4 / vbv_maxrate=62500 / vbv_bufsize=78125 / crf_max=0.0 / nal_hrd=none / filler=0 / ip_ratio=1.30 / pb_ratio=1.20 / aq=2:0.72
Default : Да
Forced : Нет
Statistics Tags Issue : mkvmerge v9.7.1 ('Pandemonium') 64bit 2017-01-21 17:28:46 / mkvmerge v7.6.0 ('Garden of Dreams') 32bit built on Feb 11 2015 00:18:47 2017-01-22 08:28:01
FromStats_BitRate : 10877244
FromStats_Duration : 01:45:14.558000000
FromStats_FrameCount : 151398
FromStats_StreamSize : 8585623832
Аудио #1
Идентификатор : 2
Формат : DTS
Формат/Информация : Digital Theater Systems
Режим : 16
Параметр Endianness формата : Big
Идентификатор кодека : A_DTS
Продолжительность : 1 ч. 45 м.
Вид битрейта : Постоянный
Битрейт : 1509 Кбит/сек
Каналы : 6 каналов
Расположение каналов : Front: L C R, Side: L R, LFE
Частота : 48,0 КГц
Частота кадров : 93,750 кадра/сек (512 spf)
Битовая глубина : 24 бит
Метод сжатия : С потерями
Размер потока : 1,11 Гбайт (11%)
Заголовок : закадровый, DVDМагия
Язык : Russian
Default : Да
Forced : Нет
Аудио #2
Идентификатор : 3
Формат : AC-3
Формат/Информация : Audio Coding 3
Расширение режима : CM (complete main)
Параметр Endianness формата : Big
Идентификатор кодека : A_AC3
Продолжительность : 1 ч. 45 м.
Вид битрейта : Постоянный
Битрейт : 192 Кбит/сек
Каналы : 2 канала
Расположение каналов : Front: L R
Частота : 48,0 КГц
Частота кадров : 31,250 кадров/сек (1536 spf)
Битовая глубина : 16 бит
Метод сжатия : С потерями
Размер потока : 145 Мбайт (1%)
Заголовок : закадровый, 1-й канал
Язык : Russian
Default : Нет
Forced : Нет
Аудио #3
Идентификатор : 4
Формат : DTS
Формат/Информация : Digital Theater Systems
Режим : 16
Параметр Endianness формата : Big
Идентификатор кодека : A_DTS
Продолжительность : 1 ч. 45 м.
Вид битрейта : Постоянный
Битрейт : 1509 Кбит/сек
Каналы : 6 каналов
Расположение каналов : Front: L C R, Side: L R, LFE
Частота : 48,0 КГц
Частота кадров : 93,750 кадра/сек (512 spf)
Битовая глубина : 24 бит
Метод сжатия : С потерями
Размер потока : 1,11 Гбайт (11%)
Заголовок : оригинал
Язык : English
Default : Нет
Forced : Нет
Текст
Идентификатор : 5
Формат : UTF-8
Идентификатор кодека : S_TEXT/UTF8
Идентификатор кодека/Информация : UTF-8 Plain Text
Заголовок : английские
Язык : English
Default : Нет
Forced : Нет
Меню
00:00:00.000 : en:00:00:00.000
00:05:00.000 : en:00:05:00.000
00:10:00.000 : en:00:10:00.000
00:15:00.000 : en:00:15:00.000
00:20:00.000 : en:00:20:00.000
00:25:00.000 : en:00:25:00.000
00:30:00.000 : en:00:30:00.000
00:35:00.000 : en:00:35:00.000
00:40:00.000 : en:00:40:00.000
00:45:00.000 : en:00:45:00.000
00:50:00.000 : en:00:50:00.000
00:55:00.000 : en:00:55:00.000
01:00:00.000 : en:01:00:00.000
01:05:00.000 : en:01:05:00.000
01:10:00.000 : en:01:10:00.000
01:15:00.000 : en:01:15:00.000
01:20:00.000 : en:01:20:00.000
01:25:00.000 : en:01:25:00.000
01:30:00.000 : en:01:30:00.000
01:35:00.000 : en:01:35:00.000
01:40:00.000 : en:01:40:00.000
01:45:00.000 : en:01:45:00.000

[10.36 GB] Скачать / Download