Банда Ольсена идет по следу / Olsen Banden på sporet (Эрик Баллинг / Erik Balling) VO + Original Dan - Скачать

Страна: Дания
Студия: Nordisk Film
Жанр: Комедия, Криминал
Год выпуска: 1975
Продолжительность: 01:45:06
Перевод: Любительский (одноголосый закадровый)
Русские субтитры: нет
Оригинальная аудиодорожка: датский
Режиссер: Эрик Баллинг / Erik Balling
В ролях: Ове Спрогёе, Мортен Грунвалль, Поуль Бунгор, Кирстен Вальтер, Аксель Стрёби, Оле Эрнст, Пауль Хаген, Хэльге Кьерульф-Шмидт, Ове Вернер Хансен, Йес Холтсё (Ove Sprogøe, Morten Grunwald, Poul Bundgaard, Kirsten Walther, Axel Strøbye, Ole Ernst, Paul Hagen, Helge Kjærulff-Schmidt, Ove Verner Hansen, Jes Holtsø)
Описание: Наконец-то банда Ольсена может почивать на лаврах. Миллионы, солнечная Испания... Чего ещё может не хватать дружной компании? Разве что, датского сыра, датских булочек и дождя. И, возможно, совсем чуточку - приключений... Ведь приятно, чёрт возьми, иной раз прокатиться с ветерком по датской железной дороге в кабине машиниста...
Доп. информация:
Рип собственного изготовления.
Перевод:bakin(коррекция перевода:conty9)
Озвучка:avtandil
Большое спасибо всем участвовавшим в подготовке релиза!
Оригинальная дорожка перекодирована из двухканального DTS в AC3 для уменьшения размера рипа.
В исходниках разбивка по главам сделана одинаково для всех фильмов и не соответствует сценам. В рип перенесена оригинальная разбивка.
Сэмпл
Тип релиза: BDRip 720p
Контейнер: MKV
Видео: 1200x720p, 24 fps, x264, 6500 kbps
Аудио 1: Russian (Dolby AC3, 2 ch) 192 Kbps / 48 000 Hz
Аудио 2: Danish (Dolby AC3, 2 ch) 192 Kbps / 48 000 Hz
Субтитры: DanishРаздача полной коллекции фильмов в качестве HDRip

бесплатно, download, кино, субтитры, скачать, на русском, hd, fullhd, торрент, torrent, высокое качество, полная версия, subs, оригинал, фильм, видео

Уникальный идентификатор : 239877726969565824491613887575203541743 (0xB476C50D6EE162BBB4E37D77E0D472EF)
Полное имя : Olsen.Banden.paa.sporet.(1975).BDRip.720p.x264.AC3.RUS.DAN.mkv
Формат : Matroska
Версия формата : Version 2
Размер файла : 5,06 Гбайт
Продолжительность : 1 ч. 45 м.
Общий поток : 6886 Кбит/сек
Название фильма : Olsen Banden paa sporet (1975)
Дата кодирования : UTC 2012-03-08 03:40:37
Программа кодирования : mkvmerge v5.3.0 ('I could have danced') built on Feb 9 2012 10:38:07
Библиотека кодирования : libebml v1.2.3 + libmatroska v1.3.0
Видео
Идентификатор : 1
Формат : AVC
Формат/Информация : Advanced Video Codec
Профиль формата : [email protected]
Параметр CABAC формата : Да
Параметр ReFrames формата : 5 кадров
Идентификатор кодека : V_MPEG4/ISO/AVC
Продолжительность : 1 ч. 45 м.
Битрейт : 6500 Кбит/сек
Ширина : 1200 пикселей
Высота : 720 пикселей
Соотношение сторон : 1,667
Частота кадров : 24,000 кадра/сек
Цветовое пространство : YUV
Субдискретизация насыщенности : 4:2:0
Битовая глубина : 8 бит
Тип развёртки : Прогрессивная
Бит/(Пиксели*Кадры) : 0.313
Размер потока : 4,67 Гбайт (92%)
Библиотека кодирования : x264 core 115 r1995 c1e60b9
Настройки программы : cabac=1 / ref=5 / deblock=1:-2:-2 / analyse=0x3:0x113 / me=umh / subme=8 / psy=1 / psy_rd=1.00:0.00 / mixed_ref=1 / me_range=32 / chroma_me=1 / trellis=2 / 8x8dct=1 / cqm=0 / deadzone=21,11 / fast_pskip=0 / chroma_qp_offset=-2 / threads=6 / sliced_threads=0 / nr=0 / decimate=1 / interlaced=0 / bluray_compat=0 / constrained_intra=0 / bframes=4 / b_pyramid=2 / b_adapt=2 / b_bias=0 / direct=3 / weightb=1 / open_gop=0 / weightp=2 / keyint=250 / keyint_min=24 / scenecut=40 / intra_refresh=0 / rc=2pass / mbtree=0 / bitrate=6500 / ratetol=1.0 / qcomp=0.60 / qpmin=10 / qpmax=51 / qpstep=4 / cplxblur=20.0 / qblur=0.5 / ip_ratio=1.40 / pb_ratio=1.30 / aq=1:1.00
Default : Да
Forced : Нет
Аудио #1
Идентификатор : 2
Формат : AC-3
Формат/Информация : Audio Coding 3
Расширение режима : CM (complete main)
Идентификатор кодека : A_AC3
Продолжительность : 1 ч. 45 м.
Вид битрейта : Постоянный
Битрейт : 192 Кбит/сек
Каналы : 2 канала
Расположение каналов : Front: L R
Частота : 48,0 КГц
Битовая глубина : 16 бит
Размер потока : 144 Мбайт (3%)
Заголовок : Russian
Язык : Russian
Default : Да
Forced : Нет
Аудио #2
Идентификатор : 3
Формат : AC-3
Формат/Информация : Audio Coding 3
Расширение режима : CM (complete main)
Идентификатор кодека : A_AC3
Продолжительность : 1 ч. 45 м.
Вид битрейта : Постоянный
Битрейт : 192 Кбит/сек
Каналы : 2 канала
Расположение каналов : Front: L R
Частота : 48,0 КГц
Битовая глубина : 16 бит
Размер потока : 144 Мбайт (3%)
Заголовок : Original
Язык : Danish
Default : Нет
Forced : Нет
Текст
Идентификатор : 4
Формат : UTF-8
Идентификатор кодека : S_TEXT/UTF8
Идентификатор кодека/Информация : UTF-8 Plain Text
Язык : Danish
Default : Нет
Forced : Нет
Меню
00:00:00.000 : en:00:00:00.000
00:03:01.014 : en:00:03:01.014
00:07:55.558 : en:00:07:55.558
00:10:40.640 : en:00:10:40.640
00:14:07.096 : en:00:14:07.096
00:17:57.743 : en:00:17:57.743
00:22:16.126 : en:00:22:16.126
00:25:49.631 : en:00:25:49.631
00:28:50.354 : en:00:28:50.354
00:31:07.991 : en:00:31:07.991
00:35:14.195 : en:00:35:14.195
00:38:00.403 : en:00:38:00.403
00:42:47.982 : en:00:42:47.982
00:48:16.143 : en:00:48:16.143
00:52:16.133 : en:00:52:16.133
00:57:56.973 : en:00:57:56.973
01:03:13.873 : en:01:03:13.873
01:07:50.525 : en:01:07:50.525
01:11:56.145 : en:01:11:56.145
01:17:22.388 : en:01:17:22.388
01:21:33.847 : en:01:21:33.847
01:25:39.926 : en:01:25:39.926
01:29:42.252 : en:01:29:42.252
01:33:30.355 : en:01:33:30.355
01:37:42.899 : en:01:37:42.899
01:42:49.080 : en:01:42:49.080
01:45:06.291 : en:End Credits
01. Банда Ольсена / Olsen Banden (1968) - 720p 1080p
02. Банда Ольсена в ловушке / Olsen-Banden på spanden (1969) - 720p 1080p
03. Банда Ольсена в Ютландии / Olsen-Banden i Jylland (1971) - 720p 1080p
04. Большое ограбление банды Ольсена / Olsen Bandens store kup (1972) - 720p 1080p
05. Банда Ольсена разбушевалась / Olsen Banden går amok (1973) - 720p 1080p
06. Последнее дело банды Ольсена / Olsen-Bandens sidste bedrifter (1974) - 720p 1080p
07. Банда Ольсена идет по следу / Olsen Banden på sporet (1975) - 720p 1080p
08. Банда Ольсена в ярости / Olsen-Banden ser rødt (1976) - 720p 1080p
09. Банда Ольсена - полный вперёд! / Olsen-Banden deruda' (1977) - 720p 1080p
10. Банда Ольсена идёт на войну / Olsen-Banden går i krig (1978) - 720p 1080p
11. Банда Ольсена никогда не сдаётся / Операция начнётся после полудня / Olsen-Banden overgiver sig aldrig (1979) - 720p 1080p
12. Банда Ольсена берёт передышку / Olsen-Bandens flugt over plankeværket (1981) - 720p 1080p
13. Банда Ольсена: парижский план / Olsen-Banden over alle bjerge (1981) - 720p 1080p
14. Последняя миссия банды Ольсена / Olsen-Bandens sidste stik (1998) - 720p 1080p

[5.06 GB] Скачать / Download