Бедная маленькая богачка / Бедная маленькая богатая девочка / The Poor Little Rich Girl (Морис Турнер / Maurice Tourneur) интертитры (eng) + Sub Rus + Original - Скачать

Страна: США
Студия: Artcraft Pictures Corporation
Жанр: комедия, драма
Год выпуска: 1917
Продолжительность: 01:16:42
Интертитры: английские
Перевод: Субтитры
Субтитры: русские (перевод -VitoVitelly; корректировка - 7ime 7raveller)
Аудиодорожка: оркестровое музыкальное сопровождение Филипа Карли
Режиссер: Морис Турнер / Maurice Tourneur
В ролях: Мэри Пикфорд (Mary Pickford), Мадлейн Трэверс (Madlaine Traverse), Чарльз Уэллсли (Charles Wellesley), Глэдис Фербенкс (Gladys Fairbanks), Фрэнк МакГлинн-старший (Frank McGlynn Sr.), Эмиль Ла Круа (Emile La Croix), Марсия Харрис (Marcia Harris ), Чарльз Крэйг (Charles Craig), Фрэнк Эндрюс (Frank Andrews), Херберт Прайор (Herbert Prior) и др.
imdb
Описание:Гвендолин почти 11 лет, её папа "делает деньги" на Уолл-стрит, мама поглощена многочисленными светскими мероприятиями; гувернантка, слуги и учителя пренебрежительно относятся к девочке, уличные мальчишки прозвали её Бедной маленькой богачкой... Гвен очень одиноко и скучно, её проделки – лишь попытки вырваться из замкнутого круга. Вся эта ситуация однажды приведёт к трагическому происшествию, которое сподвигнет, наконец, родителей понять, в чём же истинные жизненные ценности...
Режиссёру Морису Турнеру несомненно удалась эта остроумная и добрая комедия, главным украшением которой стала исполнительница роли Гвен – Мэри Пикфорд. Мы скорее относимся с юмором к подобным перевоплощениям. Ещё бы – "взрослая тётенька" играет маленькую девочку... Но Мэри Пикфорд делает это настолько талантливо, настолько искромётно и вдохновенно, что об этой условности почти сразу же забываешь. В дополнение ко всему, как это снято!.. Режиссёру и операторам удаётся без каких-либо спецэффектов визуально приуменьшить актрису относительно обстановки и других персонажей.
Сэмпл:http://multi-up.com/836967
Тип релиза: BDRip 720p bySkazhutin
Контейнер: MKV
Видео: [email protected] (crf), 960x720 at 19.980 fps, ~8677 kbps
Аудио 1: DTS: 755 kbps, 48 khz, 2 ch – Score by Philip Carli and the Flower City Society Orchestra
Аудио 2: Dolby AC3: 192 kbps, 48 kHz, 2 ch – Commentary by film historian Scott Eyman
Формат субтитров: softsub (SRT)
Навигация по главам: есть

видео, fullhd, бесплатно, высокое качество, фильм, кино, на русском, hd, торрент, полная версия, скачать, torrent, download, subs, субтитры, оригинал

General
Unique ID : 197746552858632216749447805400355697370 (0x94C499CB140D101892F5818D3747F2DA)
Complete name : Q:\The.Poor.Little.Rich.Girl.1917.720p.BluRay.DTS.x264.HDCLUB-Skazhutin.mkv
Format : Matroska
Format version : Version 4 / Version 2
File size : 5.16 GiB
Duration : 1h 16mn
Overall bit rate : 9 623 Kbps
Movie name : The Poor Little Rich Girl (1917) - Release for HDCLUB by Skazhutin & VitoVitelly
Encoded date : UTC 2013-02-28 17:40:07
Writing application : mkvmerge v6.0.0 ('Coming Up For Air') built on Jan 20 2013 09:52:00
Writing library : libebml v1.3.0 + libmatroska v1.4.0
Attachment : Yes / Yes
Video
ID : 1
Format : AVC
Format/Info : Advanced Video Codec
Format profile : [email protected]
Format settings, CABAC : Yes
Format settings, ReFrames : 12 frames
Codec ID : V_MPEG4/ISO/AVC
Duration : 1h 16mn
Bit rate : 8 485 Kbps
Width : 960 pixels
Height : 720 pixels
Display aspect ratio : 4:3
Frame rate : 19.980 fps
Color space : YUV
Chroma subsampling : 4:2:0
Bit depth : 8 bits
Scan type : Progressive
Bits/(Pixel*Frame) : 0.614
Stream size : 4.55 GiB (88%)
Title : Release for HDCLUB
Writing library : x264 core 129 r2245kMod bc13772
Encoding settings : cabac=1 / ref=12 / deblock=1:-3:-3 / analyse=0x3:0x113 / me=umh / subme=11 / psy=1 / fade_compensate=0.00 / psy_rd=1.00:0.00 / mixed_ref=1 / me_range=48 / chroma_me=1 / trellis=2 / 8x8dct=1 / cqm=0 / deadzone=21,11 / fast_pskip=1 / chroma_qp_offset=-2 / threads=12 / lookahead_threads=2 / sliced_threads=0 / nr=0 / decimate=1 / interlaced=0 / bluray_compat=0 / constrained_intra=0 / bframes=15 / b_pyramid=2 / b_adapt=2 / b_bias=0 / direct=3 / weightb=1 / open_gop=0 / weightp=2 / keyint=250 / keyint_min=19 / scenecut=40 / intra_refresh=0 / rc_lookahead=40 / rc=crf / mbtree=0 / crf=16.0000 / qcomp=0.65 / qpmin=0 / qpmax=69 / qpstep=4 / vbv_maxrate=50000 / vbv_bufsize=62500 / crf_max=0.0 / nal_hrd=none / ip_ratio=1.40 / pb_ratio=1.30 / aq=1:0.75
Language : English
Default : Yes
Forced : No
Matrix coefficients : BT.709-5, BT.1361, IEC 61966-2-4 709, SMPTE RP177
Audio #1
ID : 2
Format : DTS
Format/Info : Digital Theater Systems
Codec ID : A_DTS
Duration : 1h 16mn
Bit rate mode : Constant
Bit rate : 755 Kbps
Channel(s) : 2 channels
Channel positions : Front: L R
Sampling rate : 48.0 KHz
Bit depth : 16 bits
Compression mode : Lossy
Stream size : 414 MiB (8%)
Title : Score by Philip Carli and the Flower City Society Orchestra
Language : English
Default : Yes
Forced : No
Audio #2
ID : 3
Format : AC-3
Format/Info : Audio Coding 3
Mode extension : CM (complete main)
Format settings, Endianness : Big
Codec ID : A_AC3
Duration : 1h 16mn
Bit rate mode : Constant
Bit rate : 192 Kbps
Channel(s) : 2 channels
Channel positions : Front: L R
Sampling rate : 48.0 KHz
Bit depth : 16 bits
Compression mode : Lossy
Stream size : 105 MiB (2%)
Title : Commentary by film historian Scott Eyman
Language : English
Default : No
Forced : No
Text
ID : 4
Format : UTF-8
Codec ID : S_TEXT/UTF8
Codec ID/Info : UTF-8 Plain Text
Language : Russian
Default : Yes
Forced : No
Menu
00:00:00.000 : en:The Home of Everything
00:07:24.044 : en:I Want to Walk!
00:15:54.153 : en:Susie May
00:24:22.511 : en:Crime and Punishment
00:28:03.882 : en:The Best Fight!
00:37:13.531 : en:Grown Up
00:43:20.248 : en:Sleeping Medicine
00:50:40.538 : en:The Spell
00:58:55.182 : en:The Struggle
01:05:31.077 : en:Eternal Sleep
01:10:26.572 : en:Back Again
01:12:56.522 : en:True Wealth

[5.16 GB] Скачать / Download