Бегство Логана / Logan's Run (Майкл Андерсон / Michael Anderson) MVO + Sub Eng + Original Eng - Скачать

Год выпуска: 1976
Страна: США
Жанр: фантастика, мелодрама, драма, приключения
Продолжительность: 01:58:00
Перевод: Профессиональный (многоголосый, закадровый)
Субтитры: English
Слоган:«The only thing you can't have in Logan's world is your 30th birthday. Unless you run away.»

Режиссер: Майкл Андерсон / Michael Anderson
В ролях: Майкл Йорк, Ричард Джордан, Дженни Агуттер, Роско Ли Браун, Фэрра Фоусет, Майкл Андерсон мл., Питер Устинов, Рэндольф Робертс, Лара Линдсэй, Гари Морган

Описание: 23 столетие... Для переживших войну основан город под куполом, где люди живут в сбалансированном мире полностью доверившись машинам. Продолжительность жизни ограничена 30-тью годами, после которых якобы происходит возрождение в «Огненной карусели». Но так ли это на самом деле?

Доп. информация:
Кинопоиск: 6.608 (2005)
IMDB: 6.80 (43 037)

:
СпасибоMachoSergio
Раздача от:

Рецензия Сергей Кудрявцев→

Качество: BDRip
Формат: MKV
Видео кодек: H.264
Аудио кодек: AC3
Видео: 1280x534 (2.35:1) at 23.976 fps, x264, ~7174 Kbps avg
Аудио: Russian: 48 kHz, AC3, 2/0 (L,R), ~192.00 kbps avg |Многоголосый закадровый|
Аудио: English: 48 kHz, AC3, 3/2 (L,C,R,l,r) + LFE ch, ~640.00 kbps avg

кино, бесплатно, оригинал, fullhd, torrent, торрент, субтитры, видео, на русском, hd, высокое качество, фильм, полная версия, скачать, subs, download

Оскар, 1977 год
Номинации (2):
* Лучшая работа оператора
* Лучшие декорации
ММКФ, 1977 год
Номинации (1):
* Золотой приз
Общее
Уникальный идентификатор : 206556880926838028826229864770702335571 (0x9B65688114C8ADF3842D62192C3EDE53)
Полное имя : M:\123\Logan's.Run.1976.720p.Bluray.Rus.Eng.HDCLUB.mkv
Формат : Matroska
Версия формата : Version 1
Размер файла : 6,76 Гбайт
Продолжительность : 1 ч. 58 м.
Общий поток : 8166 Кбит/сек
Название фильма : Logan's Run (1976) - Release for HDCLUB
Дата кодирования : UTC 2009-11-09 17:38:37
Программа кодирования : mkvmerge v2.1.0 ('Another Place To Fall') built on Aug 19 2007 13:40:07
Библиотека кодирования : libebml v0.7.7 + libmatroska v0.8.1
Видео
Идентификатор : 1
Формат : AVC
Формат/Информация : Advanced Video Codec
Профиль формата : [email protected]
Настройки формата : CABAC / 5 Ref Frames
Параметр CABAC формата : Да
Параметр RefFrames формата : 5 кадров
Идентификатор кодека : V_MPEG4/ISO/AVC
Продолжительность : 1 ч. 58 м.
Битрейт : 7330 Кбит/сек
Ширина : 1280 пикселей
Высота : 534 пикселя
Соотношение сторон : 2,40:1
Режим частоты кадров : Постоянный
Частота кадров : 23,976 (23976/1000) кадра/сек
Цветовое пространство : YUV
Субдискретизация насыщенности : 4:2:0
Битовая глубина : 8 бит
Тип развёртки : Прогрессивная
Бит/(Пиксели*Кадры) : 0.447
Размер потока : 5,94 Гбайт (88%)
Заголовок : Release for HDCLUB
Библиотека кодирования : x264 core 68 r1184M 88b35c2
Настройки программы : cabac=1 / ref=5 / deblock=1:-2:-2 / analyse=0x3:0x133 / me=umh / subme=9 / psy_rd=1.0:0.0 / mixed_ref=1 / me_range=24 / chroma_me=1 / trellis=2 / 8x8dct=1 / cqm=0 / deadzone=21,11 / chroma_qp_offset=-2 / threads=6 / nr=0 / decimate=0 / mbaff=0 / bframes=6 / b_pyramid=1 / b_adapt=2 / b_bias=0 / direct=3 / wpredb=1 / keyint=250 / keyint_min=25 / scenecut=40 / rc=2pass / bitrate=7330 / ratetol=2.0 / qcomp=0.60 / qpmin=10 / qpmax=51 / qpstep=4 / cplxblur=20.0 / qblur=0.5 / ip_ratio=1.40 / pb_ratio=1.30 / aq=1:1.00
Язык : English
Default : Да
Forced : Нет
Аудио #1
Идентификатор : 2
Формат : AC-3
Формат/Информация : Audio Coding 3
Идентификатор кодека : A_AC3
Продолжительность : 1 ч. 58 м.
Вид битрейта : Постоянный
Битрейт : 192 Кбит/сек
Каналы : 2 канала
Расположение каналов : Front: L R
Частота : 48,0 КГц
Частота кадров : 31,250 кадров/сек (1536 SPF)
Битовая глубина : 16 бит
Метод сжатия : С потерями
Размер потока : 163 Мбайт (2%)
Заголовок : AC3 2.0 192k Mnogogoloska
Язык : Russian
ServiceKind/String : Complete Main
Default : Да
Forced : Нет
Аудио #2
Идентификатор : 3
Формат : AC-3
Формат/Информация : Audio Coding 3
Идентификатор кодека : A_AC3
Продолжительность : 1 ч. 58 м.
Вид битрейта : Постоянный
Битрейт : 640 Кбит/сек
Каналы : 6 каналов
Расположение каналов : Front: L C R, Side: L R, LFE
Частота : 48,0 КГц
Частота кадров : 31,250 кадров/сек (1536 SPF)
Битовая глубина : 16 бит
Метод сжатия : С потерями
Размер потока : 543 Мбайт (8%)
Заголовок : AC3 5.1 640k
Язык : English
ServiceKind/String : Complete Main
Default : Нет
Forced : Нет
Текст
Идентификатор : 4
Формат : UTF-8
Идентификатор кодека : S_TEXT/UTF8
Идентификатор кодека/Информация : UTF-8 Plain Text
Язык : English
Default : Да
Forced : Нет

[6.76 GB] Скачать / Download