Безумный бомбометатель / Сумасшедший террорист / The Mad Bomber / The Police Connection (Берт А. Гордон / Bert I. Gordon) AVO (А. Дольский) + Original Eng - Скачать

Страна: США
Студия: College Productions
Жанр: детектив
Год выпуска: 1973
Продолжительность: 01:30:56
Перевод: Авторский (одноголосый закадровый)А. Дольский
Субтитры: нет
Оригинальная аудиодорожка: английский
Режиссер: Берт А. Гордон / Bert I. Gordon
В ролях: Винс Эдвардс, Чак Коннорс, Невилл Брэнд, Хэнк Брандт, Кристина Харт, Фейт Квабиус, Илона Уилсон,
Тэд Геринг, Джефф Бертон, Ди Кэрролл, Паула Митчелл, Синтия МакАдамс, Бретт Хэдли, Ройс Д. Эпплгейт, Джек Гарнер и др.
Описание: Уилльям Дорн решает отомстить всем людям, которые обвиняли его в смерти от передозировки наркотиков его дочери и разрыве с женой. Первой целью его мести становится старая школа, где училась дочь. Второй целью становится психиатрическая больница, где умерла дочь. Наконец, последней целью обезумевшего Уилльяма становится феминистическая организация, членом которой была его жена.
Однако во время взрыва бомбы в больнице, свидетелями преступления становятся преступник-насильник Джордж Фромли и его жертва, юная немая девушка. За дело берется детектив Джеронимо Минелли. Первым делом он отправляется на поиски Фромли. И не только для того, чтобы арестовать его, сколько за тем, чтобы спасти его от участи стать очередной жертвой мести Уилльяма…


СэмплIMDBКинопоиск


Доп. информация:
Заказ перевода -porvaliparus
Тип релиза: BDRip 720p
Контейнер: MKV
Видео: AVC / 1280x720 / 16:9 / 23.976fps / 12000 Kbps / [email protected]
Аудио 1: Rus, DTS / 48.0 KHz / 2.0 / 1509 kbps / 24 bit) AVO / А. Дольский
Аудио 2: Eng, DTS / 48.0 KHz / 2.0 / 1509 kbps / 24 bit)
Дополнительная тех. информация
Исходник

subs, фильм, видео, оригинал, скачать, download, torrent, субтитры, hd, на русском, бесплатно, высокое качество, кино, торрент, полная версия, fullhd

Общее
Уникальный идентификатор : 206524809117061161940613332497206399361 (0x9B5F3B3DEE4FC43D962DC4D56400D181)
Полное имя : E:\porvaliparus\The.Mad.Bomber.1973.BDRip.720p.mkv
Формат : Matroska
Версия формата : Version 4 / Version 2
Размер файла : 9,54 Гбайт
Продолжительность : 1 ч. 30 м.
Общий поток : 15,0 Мбит/сек
Название фильма : The.Mad.Bomber.1973.BDRip.720p-porvaliparus
Дата кодирования : UTC 2017-08-04 23:13:58
Программа кодирования : mkvmerge v13.0.0 ('The Juggler') 64bit
Библиотека кодирования : libebml v1.3.4 + libmatroska v1.4.5
Видео
Идентификатор : 1
Формат : AVC
Формат/Информация : Advanced Video Codec
Профиль формата : [email protected]
Параметр CABAC формата : Да
Параметр ReFrames формата : 9 кадров
Идентификатор кодека : V_MPEG4/ISO/AVC
Продолжительность : 1 ч. 30 м.
Битрейт : 12,0 Мбит/сек
Ширина : 1280 пикселей
Высота : 720 пикселей
Соотношение сторон : 16:9
Режим частоты кадров : Постоянный
Частота кадров : 23,976 (24000/1001) кадра/сек
Цветовое пространство : YUV
Субдискретизация насыщенности : 4:2:0
Битовая глубина : 8 бит
Тип развёртки : Прогрессивная
Бит/(Пиксели*Кадры) : 0.543
Размер потока : 7,62 Гбайт (80%)
Заголовок : The.Mad.Bomber.1973.BDRip.720p
Библиотека кодирования : x264 core 152 r2851 ba24899
Настройки программы : cabac=1 / ref=9 / deblock=1:-3:-3 / analyse=0x3:0x133 / me=umh / subme=11 / psy=1 / psy_rd=1.00:0.10 / mixed_ref=1 / me_range=32 / chroma_me=1 / trellis=2 / 8x8dct=1 / cqm=0 / deadzone=21,11 / fast_pskip=0 / chroma_qp_offset=-3 / threads=12 / lookahead_threads=3 / sliced_threads=0 / nr=0 / decimate=1 / interlaced=0 / bluray_compat=0 / constrained_intra=0 / bframes=10 / b_pyramid=2 / b_adapt=2 / b_bias=0 / direct=3 / weightb=1 / open_gop=0 / weightp=2 / keyint=250 / keyint_min=23 / scenecut=40 / intra_refresh=0 / rc_lookahead=40 / rc=2pass / mbtree=0 / bitrate=12000 / ratetol=1.0 / qcomp=0.60 / qpmin=0 / qpmax=69 / qpstep=4 / cplxblur=20.0 / qblur=0.5 / vbv_maxrate=50000 / vbv_bufsize=62500 / nal_hrd=none / filler=0 / ip_ratio=1.40 / pb_ratio=1.30 / aq=1:0.80
Default : Да
Forced : Нет
Аудио #1
Идентификатор : 2
Формат : DTS
Формат/Информация : Digital Theater Systems
Режим : 16
Параметр Endianness формата : Big
Идентификатор кодека : A_DTS
Продолжительность : 1 ч. 30 м.
Вид битрейта : Постоянный
Битрейт : 1509 Кбит/сек
Каналы : 2 канала
Расположение каналов : Front: L R
Частота : 48,0 КГц
Частота кадров : 93,750 кадра/сек (512 spf)
Битовая глубина : 24 бит
Метод сжатия : С потерями
Размер потока : 982 Мбайт (10%)
Заголовок : AVO [А. Дольский]
Язык : Russian
Default : Да
Forced : Нет
Аудио #2
Идентификатор : 3
Формат : DTS
Формат/Информация : Digital Theater Systems
Режим : 16
Параметр Endianness формата : Big
Идентификатор кодека : A_DTS
Продолжительность : 1 ч. 30 м.
Вид битрейта : Постоянный
Битрейт : 1509 Кбит/сек
Каналы : 2 канала
Расположение каналов : Front: L R
Частота : 48,0 КГц
Частота кадров : 93,750 кадра/сек (512 spf)
Битовая глубина : 24 бит
Метод сжатия : С потерями
Размер потока : 982 Мбайт (10%)
Язык : English
Default : Нет
Forced : Нет
Меню
00:00:00.000 : en:Chapter 01
00:08:50.196 : en:Chapter 02
00:14:37.209 : en:Chapter 03
00:21:21.280 : en:Chapter 04
00:30:33.248 : en:Chapter 05
00:38:05.741 : en:Chapter 06
00:47:31.348 : en:Chapter 07
00:56:10.950 : en:Chapter 08
01:07:07.481 : en:Chapter 09
01:18:19.569 : en:Chapter 10
01:28:37.395 : en:Chapter 11
x264 [info]: using SAR=1/1
x264 [info]: using cpu capabilities: MMX2 SSE2Fast SSSE3 SSE4.2 AVX
x264 [info]: profile High, level 4.1
x264 [info]: frame I:764 Avg QP:15.01 size:145228
x264 [info]: frame P:24483 Avg QP:16.66 size: 84809
x264 [info]: frame B:105577 Avg QP:18.91 size: 56759
x264 [info]: consecutive B-frames: 1.3% 2.1% 6.3% 12.2% 11.7% 33.0% 10.5% 6.6% 6.6% 5.8% 3.9%
x264 [info]: mb I I16..4: 7.5% 81.0% 11.5%
x264 [info]: mb P I16..4: 0.8% 55.9% 2.3% P16..4: 14.4% 17.6% 6.5% 0.7% 0.0% skip: 1.8%
x264 [info]: mb B I16..4: 0.2% 20.1% 0.2% B16..8: 32.2% 24.1% 5.7% direct:12.8% skip: 4.9% L0:48.3% L1:35.2% BI:16.5%
x264 [info]: 8x8 transform intra:96.6% inter:64.7%
x264 [info]: direct mvs spatial:96.5% temporal:3.5%
x264 [info]: coded y,uvDC,uvAC intra: 97.8% 93.0% 77.6% inter: 75.6% 74.7% 16.3%
x264 [info]: i16 v,h,dc,p: 42% 9% 13% 35%
x264 [info]: i8 v,h,dc,ddl,ddr,vr,hd,vl,hu: 9% 9% 13% 10% 12% 11% 11% 11% 14%
x264 [info]: i4 v,h,dc,ddl,ddr,vr,hd,vl,hu: 10% 8% 8% 9% 14% 12% 13% 11% 14%
x264 [info]: i8c dc,h,v,p: 47% 23% 18% 12%
x264 [info]: Weighted P-Frames: Y:17.6% UV:10.9%
x264 [info]: ref P L0: 36.0% 11.5% 17.1% 9.7% 7.5% 5.8% 5.0% 3.4% 3.2% 0.8% 0.0%
x264 [info]: ref B L0: 57.2% 16.3% 9.9% 5.8% 4.5% 3.8% 2.1% 0.4%
x264 [info]: ref B L1: 89.8% 10.2%
x264 [info]: kb/s:11992.82
x264 [total]: encoded 130824 frames, 6.08 fps, 11992.82 kb/s

[9.54 GB] Скачать / Download