Босиком в парке / Босиком по парку / Barefoot in the Park (Джин Сакс / Gene Saks) DVO (НТВ+) + 3х MVO (Paramount, DVD Магия, SomeWax) + Original Eng + Sub (Rus, Eng) - Скачать

Год выпуска:1967
Страна:США
Жанр:комедия, мелодрама
Продолжительность:01:46:00
Перевод 1:Профессиональный (двухголосый закадровый)НТВ+
Перевод 2:Профессиональный (многоголосый закадровый)Paramount Channel
Перевод 3:Профессиональный (многоголосый закадровый)DVD Магия
Перевод 4:Профессиональный (многоголосый закадровый)SomeWax
Оригинальная аудиодорожка:Английская
Субтитры:Русские (SomeWax), английские (полные, для слабослышащих)

Режиссер:Джин Сакс / Gene Saks
В ролях:Роберт Редфорд (Robert Redford), Шарль Буайе (Charles Boyer), Джейн Фонда (Jane Fonda), Милдред Нэтуик (Mildred Natwick)

Описание:
Пол (Роберт Редфорд) и Кори Брэттер (Джейн Фонда) - молодожены, которые живут в маленькой квартирке на пятом этаже в доме без лифта. Молодых окружают забавные соседи и не менее забавные ситуации. Кори - восторженная особа, она считает, что у них милая квартирка, а Пол, консервативный юрист, ненавидит свое жилище. К тому же, у них есть сосед с верхнего этажа, ловелас Виктор Веласко, который периодически вынужден проходить через их комнату, чтобы попасть в свою квартиру. Романтичной Кори нравится престарелый "Казанова", и она устраивает ему знакомство со своей мамашей Бианки (Нэтуик). Все это страшно раздражает Пола и они с Кори оказываются на грани разрыва, но...

За русские дорожки спасибоalenavova,vedigo,stan69иbm11. Отдельное спасибоUgo927за помощь.
| |Сэмпл

Качество:WEB-DL 1080p (SbR)
Контейнер:MKV
Видео:AVC (x264), 1920x1080 (1.78:1), 23.976 fps, 14545 kbps
Аудио 1:Русский AC3 2.0, 48 kHz, 192 kbps — НТВ+
Аудио 2:Русский AC3 2.0, 48 kHz, 192 kbps — Paramount Channel
Аудио 3:Русский AC3 2.0, 48 kHz, 192 kbps — DVD Магия
Аудио 4:Русский AC3 2.0, 48 kHz, 192 kbps — SomeWax
Аудио 5:Английский EAC3 2.0, 48 kHz, 224 kbps

скачать, оригинал, субтитры, видео, бесплатно, subs, download, кино, fullhd, на русском, torrent, фильм, полная версия, hd, торрент, высокое качество

General
Unique ID : 232693397163310574428628892339099212497 (0xAF0F1E3ECDA0317BA815B7A50DE91AD1)
Complete name : Barefoot.in.the.Park.1967.1080p.WEB-DL.DD2.0.H.264-SbR.mkv
Format : Matroska
Format version : Version 2
File size : 11.5 GiB
Duration : 1 h 46 min
Overall bit rate mode : Variable
Overall bit rate : 15.5 Mb/s
Movie name : Barefoot in the Park / Босиком по парку (1967) – RuTracker
Encoded date : UTC 2017-03-04 18:56:44
Writing application : mkvmerge v9.9.0 ('Pick Up') 64bit
Writing library : libebml v1.3.4 + libmatroska v1.4.5
Cover : Yes
Attachments : cover.jpg
Video
ID : 1
Format : AVC
Format/Info : Advanced Video Codec
Format profile : [email protected]
Format settings, CABAC : Yes
Format settings, ReFrames : 4 frames
Codec ID : V_MPEG4/ISO/AVC
Duration : 1 h 46 min
Bit rate mode : Variable
Bit rate : 14.5 Mb/s
Maximum bit rate : 15.0 Mb/s
Width : 1 920 pixels
Height : 1 080 pixels
Display aspect ratio : 16:9
Frame rate mode : Constant
Frame rate : 23.976 (24000/1001) FPS
Color space : YUV
Chroma subsampling : 4:2:0
Bit depth : 8 bits
Scan type : Progressive
Bits/(Pixel*Frame) : 0.293
Stream size : 10.8 GiB (94%)
Title : Barefoot.in.the.Park.1967.1080p.WEB-DL.DD+2.0.H.264-SbR
Writing library : x264 core 148 r2623 d5b2374
Encoding settings : cabac=1 / ref=4 / deblock=1:-1:-1 / analyse=0x3:0x133 / me=umh / subme=9 / psy=1 / psy_rd=1.00:0.15 / mixed_ref=1 / me_range=24 / chroma_me=1 / trellis=2 / 8x8dct=1 / cqm=0 / deadzone=21,11 / fast_pskip=1 / chroma_qp_offset=-3 / threads=34 / lookahead_threads=5 / sliced_threads=0 / nr=150 / decimate=1 / interlaced=0 / bluray_compat=0 / constrained_intra=0 / bframes=8 / b_pyramid=2 / b_adapt=2 / b_bias=0 / direct=3 / weightb=1 / open_gop=0 / weightp=2 / keyint=120 / keyint_min=61 / scenecut=0 / intra_refresh=0 / rc_lookahead=120 / rc=crf / mbtree=1 / crf=18.0 / qcomp=0.60 / qpmin=0 / qpmax=69 / qpstep=4 / vbv_maxrate=15000 / vbv_bufsize=31250 / crf_max=0.0 / nal_hrd=vbr / filler=0 / ip_ratio=1.40 / aq=3:1.00
Language : English
Default : Yes
Forced : No
Color range : Limited
Color primaries : BT.709
Transfer characteristics : BT.709
Matrix coefficients : BT.709
Audio #1
ID : 2
Format : AC-3
Format/Info : Audio Coding 3
Format settings, Endianness : Big
Codec ID : A_AC3
Duration : 1 h 45 min
Bit rate mode : Constant
Bit rate : 192 kb/s
Channel(s) : 2 channels
Channel positions : Front: L R
Sampling rate : 48.0 kHz
Frame rate : 31.250 FPS (1536 spf)
Bit depth : 16 bits
Compression mode : Lossy
Stream size : 146 MiB (1%)
Title : DVO – НТВ+
Language : Russian
Service kind : Complete Main
Default : Yes
Forced : No
Audio #2
ID : 3
Format : AC-3
Format/Info : Audio Coding 3
Format settings, Endianness : Big
Codec ID : A_AC3
Duration : 1 h 46 min
Bit rate mode : Constant
Bit rate : 192 kb/s
Channel(s) : 2 channels
Channel positions : Front: L R
Sampling rate : 48.0 kHz
Frame rate : 31.250 FPS (1536 spf)
Bit depth : 16 bits
Compression mode : Lossy
Stream size : 146 MiB (1%)
Title : MVO – Paramount Сhannel
Language : Russian
Service kind : Complete Main
Default : No
Forced : No
Audio #3
ID : 4
Format : AC-3
Format/Info : Audio Coding 3
Format settings, Endianness : Big
Codec ID : A_AC3
Duration : 1 h 45 min
Bit rate mode : Constant
Bit rate : 192 kb/s
Channel(s) : 2 channels
Channel positions : Front: L R
Sampling rate : 48.0 kHz
Frame rate : 31.250 FPS (1536 spf)
Bit depth : 16 bits
Compression mode : Lossy
Stream size : 146 MiB (1%)
Title : MVO – DVD Магия
Language : Russian
Service kind : Complete Main
Default : No
Forced : No
Audio #4
ID : 5
Format : AC-3
Format/Info : Audio Coding 3
Format settings, Endianness : Big
Codec ID : A_AC3
Duration : 1 h 45 min
Bit rate mode : Constant
Bit rate : 192 kb/s
Channel(s) : 2 channels
Channel positions : Front: L R
Sampling rate : 48.0 kHz
Frame rate : 31.250 FPS (1536 spf)
Bit depth : 16 bits
Compression mode : Lossy
Stream size : 146 MiB (1%)
Title : MVO – SomeWax
Language : Russian
Service kind : Complete Main
Default : No
Forced : No
Audio #5
ID : 6
Format : E-AC-3
Format/Info : Enhanced Audio Coding 3
Format settings, Endianness : Big
Codec ID : A_EAC3
Duration : 1 h 46 min
Bit rate mode : Constant
Bit rate : 224 kb/s
Channel(s) : 2 channels
Channel positions : Front: L R
Sampling rate : 48.0 kHz
Frame rate : 187.500 FPS (256 spf)
Compression mode : Lossy
Stream size : 170 MiB (1%)
Title : Original
Language : English
Service kind : Complete Main
Default : No
Forced : No
Text #1
ID : 7
Format : UTF-8
Codec ID : S_TEXT/UTF8
Codec ID/Info : UTF-8 Plain Text
Duration : 1 h 43 min
Bit rate : 91 b/s
Count of elements : 1384
Stream size : 69.5 KiB (0%)
Title : SomeWax
Language : Russian
Default : No
Forced : No
Text #2
ID : 8
Format : UTF-8
Codec ID : S_TEXT/UTF8
Codec ID/Info : UTF-8 Plain Text
Duration : 1 h 45 min
Bit rate : 78 b/s
Count of elements : 1921
Stream size : 60.5 KiB (0%)
Language : English
Default : No
Forced : No
Text #3
ID : 9
Format : UTF-8
Codec ID : S_TEXT/UTF8
Codec ID/Info : UTF-8 Plain Text
Duration : 1 h 45 min
Bit rate : 81 b/s
Count of elements : 2021
Stream size : 62.9 KiB (0%)
Title : SDH
Language : English
Default : No
Forced : No

[11.51 GB] Скачать / Download