Боязнь высоты / Страх высоты / High Anxiety (Мел Брукс / Mel Brooks) DVO (ОРТ) + AVO (Михалев) + Original (Eng) + Sub (Rus, Eng) - Скачать

MediaInfo
General
Unique ID : 221248368787037251602086309630390349662 (0xA672E2C7AE23A474BEEA02713124AF5E)
Complete name : D:\Фильмы\Рипы\High Anxiety.1977.BDRip 720p.eFK tRuAVC.mkv
Format : Matroska
Format version : Version 4 / Version 2
File size : 8.83 GiB
Duration : 1h 34mn
Overall bit rate : 13.4 Mbps
Movie name : Боязнь высоты / Страх высоты / High Anxiety (1977) - Release for rutracker
Encoded date : UTC 2016-05-08 19:54:08
Writing application : mkvmerge v7.6.0 ('Garden of Dreams') 64bit built on Feb 8 2015 13:04:34
Writing library : libebml v1.3.1 + libmatroska v1.4.2
Attachements : cover.jpg
DURATION : 01:34:05.664000000
NUMBER_OF_FRAMES : 176427
NUMBER_OF_BYTES : 451653120
_STATISTICS_WRITING_APP : mkvmerge v7.6.0 ('Garden of Dreams') 64bit built on Feb 8 2015 13:04:34
_STATISTICS_WRITING_DATE_UT : 2016-05-08 19:54:08
_STATISTICS_TAGS : BPS DURATION NUMBER_OF_FRAMES NUMBER_OF_BYTES
Video
ID : 1
Format : AVC
Format/Info : Advanced Video Codec
Format profile : [email protected]
Format settings, CABAC : Yes
Format settings, ReFrames : 8 frames
Codec ID : V_MPEG4/ISO/AVC
Duration : 1h 34mn
Bit rate : 11.7 Mbps
Width : 1 280 pixels
Height : 692 pixels
Display aspect ratio : 1.85:1
Frame rate mode : Constant
Frame rate : 23.976 fps
Color space : YUV
Chroma subsampling : 4:2:0
Bit depth : 8 bits
Scan type : Progressive
Bits/(Pixel*Frame) : 0.551
Stream size : 7.69 GiB (87%)
Title : eFK tRuAVC
Writing library : x264 core 148 r2692kMod 64f4e24
Encoding settings : cabac=1 / ref=8 / deblock=1:-3:-3 / analyse=0x3:0x113 / me=umh / subme=11 / psy=1 / fade_compensate=0.00 / psy_rd=1.10:0.00 / mixed_ref=1 / me_range=48 / chroma_me=1 / trellis=2 / 8x8dct=1 / cqm=0 / deadzone=21,11 / fast_pskip=0 / chroma_qp_offset=-2 / threads=12 / lookahead_threads=3 / sliced_threads=0 / nr=0 / decimate=1 / interlaced=0 / bluray_compat=0 / constrained_intra=0 / fgo=0 / bframes=16 / b_pyramid=2 / b_adapt=2 / b_bias=0 / direct=3 / weightb=1 / open_gop=0 / weightp=2 / keyint=250 / keyint_min=23 / scenecut=40 / intra_refresh=0 / rc_lookahead=60 / rc=crf / mbtree=0 / crf=17.0000 / qcomp=0.62 / qpmin=0 / qpmax=69 / qpstep=4 / vbv_maxrate=62500 / vbv_bufsize=78125 / crf_max=0.0 / nal_hrd=none / filler=0 / ip_ratio=1.40 / pb_ratio=1.30 / aq=3:0.90
Language : English
Default : Yes
Forced : No
Color range : Limited
Color primaries : BT.709
Transfer characteristics : BT.709
Matrix coefficients : BT.709
DURATION : 01:34:05.640000000
NUMBER_OF_FRAMES : 135360
NUMBER_OF_BYTES : 8438469396
_STATISTICS_WRITING_APP : mkvmerge v7.6.0 ('Garden of Dreams') 64bit built on Feb 8 2015 13:04:34
_STATISTICS_WRITING_DATE_UT : 2016-05-08 19:54:08
_STATISTICS_TAGS : BPS DURATION NUMBER_OF_FRAMES NUMBER_OF_BYTES
Audio #1
ID : 2
Format : AC-3
Format/Info : Audio Coding 3
Mode extension : CM (complete main)
Format settings, Endianness : Big
Codec ID : A_AC3
Duration : 1h 34mn
Bit rate mode : Constant
Bit rate : 192 Kbps
Channel(s) : 1 channel
Channel positions : Front: C
Sampling rate : 48.0 KHz
Compression mode : Lossy
Stream size : 129 MiB (1%)
Title : Профессиональный (двухголосый закадровый) - ОРТ / Первый канал
Language : Russian
Default : Yes
Forced : No
Audio #2
ID : 3
Format : AC-3
Format/Info : Audio Coding 3
Mode extension : CM (complete main)
Format settings, Endianness : Big
Codec ID : A_AC3
Duration : 1h 34mn
Bit rate mode : Constant
Bit rate : 640 Kbps
Channel(s) : 6 channels
Channel positions : Front: L C R, Side: L R, LFE
Sampling rate : 48.0 KHz
Compression mode : Lossy
Stream size : 431 MiB (5%)
Title : Авторский (одноголосый закадровый) - Алексей Михалев
Language : Russian
Default : No
Forced : No
Audio #3
ID : 4
Format : AC-3
Format/Info : Audio Coding 3
Mode extension : CM (complete main)
Format settings, Endianness : Big
Codec ID : A_AC3
Duration : 1h 34mn
Bit rate mode : Constant
Bit rate : 640 Kbps
Channel(s) : 6 channels
Channel positions : Front: L C R, Side: L R, LFE
Sampling rate : 48.0 KHz
Compression mode : Lossy
Stream size : 431 MiB (5%)
Language : English
Default : No
Forced : No
Text #1
ID : 5
Format : UTF-8
Codec ID : S_TEXT/UTF8
Codec ID/Info : UTF-8 Plain Text
Title : полные
Language : Russian
Default : No
Forced : No
Text #2
ID : 6
Format : UTF-8
Codec ID : S_TEXT/UTF8
Codec ID/Info : UTF-8 Plain Text
Title : full
Language : English
Default : No
Forced : No
Menu
00:00:00.000 : en:00:00:00.000
00:05:49.683 : en:00:05:49.683
00:07:08.428 : en:00:07:08.428
00:08:49.612 : en:00:08:49.612
00:11:17.051 : en:00:11:17.051
00:13:36.566 : en:00:13:36.566
00:15:44.527 : en:00:15:44.527
00:20:11.836 : en:00:20:11.836
00:23:13.642 : en:00:23:13.642
00:27:29.773 : en:00:27:29.773
00:29:08.372 : en:00:29:08.372
00:32:41.168 : en:00:32:41.168
00:35:45.393 : en:00:35:45.393
00:39:22.277 : en:00:39:22.277
00:40:52.325 : en:00:40:52.325
00:45:08.164 : en:00:45:08.164
00:47:46.697 : en:00:47:46.697
00:51:36.719 : en:00:51:36.719
00:56:33.807 : en:00:56:33.807
00:58:32.134 : en:00:58:32.134
01:01:09.499 : en:01:01:09.499
01:03:11.329 : en:01:03:11.329
01:05:33.138 : en:01:05:33.138
01:08:34.610 : en:01:08:34.610
01:13:58.768 : en:01:13:58.768
01:18:28.120 : en:01:18:28.120
01:22:11.301 : en:01:22:11.301
01:24:44.621 : en:01:24:44.621
01:27:00.048 : en:01:27:00.048
01:28:51.409 : en:01:28:51.409
01:30:54.074 : en:01:30:54.074
01:31:41.496 : en:01:31:41.496
Цитата:
  • За русский звук огромное спасибо .
  • Перевод ОРТ на титры был утрачен (первые 3 минуты), заменено вставкой Михалева.
  • Русские сабы найдены в сети.
  • Сохранены оригинальные чаптеры как на Blu-ray.

субтитры, кино, скачать, бесплатно, torrent, полная версия, высокое качество, видео, fullhd, торрент, hd, subs, download, на русском, фильм, оригинал

x264 [info]: frame I:752 Avg QP:15.88 size:138707
x264 [info]: frame P:23992 Avg QP:17.01 size: 95353
x264 [info]: frame B:110616 Avg QP:19.04 size: 54662
x264 [info]: consecutive B-frames: 0.9% 0.7% 2.1% 10.9% 17.3% 39.7% 11.3% 7.8% 3.8% 2.1% 1.2% 0.9% 0.4% 0.2% 0.1% 0.2% 0.2%
x264 [info]: mb I I16..4: 0.8% 90.5% 8.6%
x264 [info]: mb P I16..4: 0.1% 40.9% 2.2% P16..4: 18.0% 25.8% 12.6% 0.0% 0.0% skip: 0.3%
x264 [info]: mb B I16..4: 0.0% 8.7% 0.4% B16..8: 37.2% 27.4% 8.6% direct:11.6% skip: 6.1% L0:45.8% L1:37.6% BI:16.7%
x264 [info]: 8x8 transform intra:94.8% inter:58.3%
x264 [info]: direct mvs spatial:100.0% temporal:0.0%
x264 [info]: coded y,uvDC,uvAC intra: 97.7% 97.4% 87.3% inter: 73.2% 67.6% 22.4%
x264 [info]: i16 v,h,dc,p: 51% 9% 8% 31%
x264 [info]: i8 v,h,dc,ddl,ddr,vr,hd,vl,hu: 9% 6% 13% 11% 13% 12% 11% 12% 12%
x264 [info]: i4 v,h,dc,ddl,ddr,vr,hd,vl,hu: 49% 3% 5% 6% 8% 8% 7% 7% 6%
x264 [info]: i8c dc,h,v,p: 54% 17% 15% 14%
x264 [info]: Weighted P-Frames: Y:11.1% UV:6.4%
x264 [info]: ref P L0: 34.9% 11.1% 19.2% 9.4% 8.5% 6.3% 6.2% 4.0% 0.4% 0.0%
x264 [info]: ref B L0: 67.4% 13.3% 7.9% 4.7% 3.8% 2.2% 0.7%
x264 [info]: ref B L1: 93.3% 6.7%
x264 [info]: kb/s:11957.50
x264 [total]: encoded 135360 frames, 2.58 fps, 11957.50 kb/s, duration 14:35:29.03

[8.83 GB] Скачать / Download