Четыре мушкетера / The Four Musketeers (Ричард Лестер / Richard Lester) MVO + DVO - Скачать

Четыре мушкетера / The Four Musketeers

Год выпуска: 1974
Страна: Испания, Панама
Жанр: боевик, мелодрама, приключения
Продолжительность: 01:46:38
Перевод: Профессиональный (многоголосый, закадровый) ТВЦ
Перевод: Профессиональный (двухголосый, закадровый) R5
Субтитры: русские (x2), английские

Режиссер: Ричард Лестер / Richard Lester
В ролях: Оливер Рид, Рэкел Уэлч, Ричард Чемберлен, Майкл Йорк, Фрэнк Финлей, Кристофер Ли, Джеральдин Чаплин, Фэй Данауэй, Рой Киннер, Майкл Гозард

Описание: Королевские мушкетеры Д`Артаньян, Атос, Портос и Арамис - отнюдь не святые. Вино, женщины и тугой кошелек порой заставляют забыть о долге. Но о чести - никогда! Пока старые друзья вместе, любые происки коварных агентов кардинала будут разбиты, ведь девиз мушкетеров - «Один за всех и все за одного!»

Доп. информация: Спасибо Diablo за работу со звуком. За исходник ТВЦ больше спасибо SnDamil.

Качество: BDRip 720p - СЭМПЛ
Формат: MKV
Видео: MPEG-4 AVC Video 6835 kbps 1280 X 720 p / 24 fps / 16:9 / High Profile 4.1
Аудио: Dolby Digital Audio Russian 2.0 / 48 kHz / 192 kbps | ТВЦ
Аудио: Dolby Digital Audio Russian 2.0 / 48 kHz / 192 kbps | R5
Аудио: English / FLAC Audio / 2.0 / 48 kHz / 840 kbps / 16-bit
MI
Код:
General
Complete name                    : F:\  -= Фильмы =-\Четыре мушкетера (1974. The Four Musketeers).mkv
Format                           : Matroska
File size                        : 6.02 GiB
Duration                         : 1h 46mn
Overall bit rate                 : 8 086 Kbps
Movie name                       : filmz.pro/link/54041346
Encoded date                     : UTC 2012-04-29 12:33:04
Writing application              : mkvmerge v4.9.1 ('Ich will') сборка от Jul 11 2011 23:53:15
Writing library                  : libebml v1.2.1 + libmatroska v1.1.1
Video
ID                               : 1
Format                           : AVC
Format/Info                      : Advanced Video Codec
Format profile                   : [email protected]
Format settings, CABAC           : Yes
Format settings, ReFrames        : 4 frames
Format settings, GOP             : M=1, N=16
Muxing mode                      : Container [email protected]
Codec ID                         : V_MPEG4/ISO/AVC
Duration                         : 1h 46mn
Width                            : 1 280 pixels
Height                           : 720 pixels
Display aspect ratio             : 16:9
Frame rate                       : 24.000 fps
Color space                      : YUV
Chroma subsampling               : 4:2:0
Bit depth                        : 8 bits
Scan type                        : Progressive
Title                            : The.Four.Musketeers.1974.720p.BluRay.FLAC2.0.x264-DON
Writing library                  : x264 core 116 r2057 0ba8a9c
Encoding settings                : cabac=1 / ref=3 / deblock=1:-3:-3 / analyse=0x3:0x133 / me=umh / subme=10 / psy=1 / psy_rd=1.00:0.00 / mixed_ref=1 / me_range=32 / chroma_me=1 / trellis=2 / 8x8dct=1 / cqm=0 / deadzone=21,11 / fast_pskip=0 / chroma_qp_offset=-2 / threads=18 / sliced_threads=0 / nr=0 / decimate=0 / interlaced=0 / bluray_compat=0 / constrained_intra=0 / bframes=7 / b_pyramid=2 / b_adapt=2 / b_bias=0 / direct=3 / weightb=1 / open_gop=0 / weightp=2 / keyint=250 / keyint_min=24 / scenecut=40 / intra_refresh=0 / rc_lookahead=40 / rc=crf / mbtree=0 / crf=17.0 / qcomp=0.65 / qpmin=0 / qpmax=40 / qpstep=4 / vbv_maxrate=50000 / vbv_bufsize=50000 / crf_max=0.0 / nal_hrd=none / ip_ratio=1.25 / pb_ratio=1.25 / aq=1:0.65
Language                         : English
Audio #1
ID                               : 2
Format                           : AC-3
Format/Info                      : Audio Coding 3
Mode extension                   : CM (complete main)
Codec ID                         : A_AC3
Duration                         : 1h 46mn
Bit rate mode                    : Constant
Bit rate                         : 192 Kbps
Channel(s)                       : 2 channels
Channel positions                : Front: L R
Sampling rate                    : 48.0 KHz
Bit depth                        : 16 bits
Stream size                      : 146 MiB (2%)
Title                            : MVO [ТВЦ]
Language                         : Russian
Audio #2
ID                               : 3
Format                           : AC-3
Format/Info                      : Audio Coding 3
Mode extension                   : CM (complete main)
Codec ID                         : A_AC3
Duration                         : 1h 46mn
Bit rate mode                    : Constant
Bit rate                         : 192 Kbps
Channel(s)                       : 2 channels
Channel positions                : Front: L R
Sampling rate                    : 48.0 KHz
Bit depth                        : 16 bits
Stream size                      : 146 MiB (2%)
Title                            : DVO [CP Digital]
Language                         : Russian
Audio #3
ID                               : 4
Format                           : FLAC
Format/Info                      : Free Lossless Audio Codec
Codec ID                         : A_FLAC
Duration                         : 1h 46mn
Bit rate mode                    : Variable
Channel(s)                       : 2 channels
Sampling rate                    : 48.0 KHz
Bit depth                        : 24 bits
Writing library                  : libFLAC 1.2.1 (UTC 2007-09-17)
Language                         : English
Text #1
ID                               : 5
Format                           : UTF-8
Codec ID                         : S_TEXT/UTF8
Codec ID/Info                    : UTF-8 Plain Text
Title                            : R5
Language                         : Russian
Text #2
ID                               : 6
Format                           : UTF-8
Codec ID                         : S_TEXT/UTF8
Codec ID/Info                    : UTF-8 Plain Text
Title                            : v2
Language                         : Russian
Text #3
ID                               : 7
Format                           : UTF-8
Codec ID                         : S_TEXT/UTF8
Codec ID/Info                    : UTF-8 Plain Text
Language                         : English
Menu
00:00:00.000                     : en:00:00:00.000
00:07:52.750                     : en:00:07:52.750
00:16:55.250                     : en:00:16:55.250
00:25:59.500                     : en:00:25:59.500
00:36:54.417                     : en:00:36:54.417
00:46:19.083                     : en:00:46:19.083
00:56:09.583                     : en:00:56:09.583
01:06:11.708                     : en:01:06:11.708
01:11:35.917                     : en:01:11:35.917
01:19:21.875                     : en:01:19:21.875
01:29:54.708                     : en:01:29:54.708
01:37:35.208                     : en:01:37:35.208

кино, фильм, hd, субтитры, полная версия, высокое качество, скачать, torrent, на русском, видео, fullhd, бесплатно, торрент, download, оригинал, subs

 The Four Musketeers 1974 720p Bluray FLAC2.0 x264-DON
INFO
RUNTIME...........: 1h:46m:38s
RELEASE SIZE......: 5,78GB
VIDEO CODEC.......: x264, crf17, L4.1
VIDEO BITRATE.....: 6835 Kbps
RESOLUTION........: 1280 X 720
FRAMERATE.........: 23.976 fps
AUDIO.............: FLAC2.0 @ 840 kbps
SUBS..............: None.
CHAPTERS..........: Yes.
SOURCE............: The.Four.Musketeers.1974.1080p.Blu-ray.EUR.AVC.DTS-HD.MA.2.0
ENCODER...........: raphaex
RELEASE DATE......: 28/03/2012
x264 INFO:
x264 [info]: profile High, level 4.1
x264 [info]: frame I:1162 Avg QP:18.17 size:115143
x264 [info]: frame P:30417 Avg QP:18.57 size: 65692
x264 [info]: frame B:121974 Avg QP:20.44 size: 27339
x264 [info]: consecutive B-frames: 1.2% 1.0% 4.1% 17.5% 19.0% 47.7% 8.2% 1.2%
encoded 153553 frames, 7.91 fps, 6835.30 kb/s
CREDITS
Vinchi, Karakoto007, Nick007, highvoltage,
LoRdScAb, velev1976, fransky, CorrmaC,
snowknight26.

[6.02 GB] Скачать / Download