Дом посторонних / House of Strangers (Джозеф Лео Манкевич / Joseph Leo Mankiewicz) VO (Виктор Рутилов (fiendover)) + Original Eng + Sub (Rus, Eng, Fre, Spa) - Скачать

Год выпуска:1949
Страна:США
Жанр:фильм-нуар, драма
Продолжительность:01:41:26
Перевод:Одноголосый закадровый –Виктор Рутилов (fiendover)
Оригинальная аудиодорожка:Английская
Субтитры:Русские (Vadmamed), английские (полные, для слабослышащих), французские, испанские

Режиссер:Джозеф Лео Манкевич / Joseph Leo Mankiewicz
В ролях:Эдвард Дж. Робинсон, Сьюзен Хэйуорд, Ричард Конте, Лютер Эдлер, Пол Валентайн, Ефрем Цимбалист мл., Дебра Пейджит, Хоуп Эмерсон

Описание:
По роману Джерома Уайдмана (Jerome Weidman).
Макс Монетти выходит на свободу после семи лет заключения. Он полон желания отомстить трем своим братьям, которые, по его мнению, предали отца и упекли Макса в тюрьму. Желание мести затмевает все остальное – и обретенную свободу, и ждавшую его все годы прекрасную возлюбленную. А если вдуматься, что было причиной несчастий? И достойная ли это цель жизни – месть? Однако воспоминания прошлого, в частности мысли о его отношениях с Ирен Беннет, приводят Макса к убеждению, что его отец сам виновен в сложных отношениях с семьей, после чего его он решает наладить отношения с братом.

Огромная благодарность всем, кто принял участие в озвучке этого фильма -Магда, елена 22, mumzik69, surzhoks, Nmaska, master-pepper, lafajet, eagle64, Бурый Иван, Clarets, duum100, Ugo927, Сергей, sashkaelectric, palmeiras
| |Сэмпл

Качество:BDRip 720p (HaB)
Контейнер:MKV
Видео:x264, 964x720 (1.33:1), 23.976 fps, 12290 kbps
Аудио 1:Русский AC3 2.0, 48 kHz, 192 kbps
Аудио 2:Английский FLAC 2.0, 48 kHz, 292 kbps, 24-bit
Аудио 3:Английский Vorbis 2.0, 48 kHz, 80 kbps – Комментарии
Формат субтитров:softsub (SRT)

торрент, бесплатно, скачать, torrent, полная версия, видео, высокое качество, subs, фильм, на русском, hd, download, кино, оригинал, субтитры, fullhd

nfo
RELEASE NAME....: House.of.Strangers.1949.720p.BluRay.FLAC.x264-HaB
RELEASE SIZE....: 8.97 GiB
RUNTIME.........: 1h 41mn
VIDEO CODEC... .: x264, crf, [email protected]
FRAMERATE.......: 23.976 fps
VIDEO BITRATE...: 12.0 Mbps
RESOLUTION......: 964x720
AUDIO...........: English, FLAC 2.0, 292 Kbps
COMMENTARY......: by Foster Hirsch
SUBTiTLES.......: English SDH, Spanish, French
CHAPTERS........: included
SOURCE..........: 1080p Blu-ray AVC DTS-HD MA 2.0
ESC Editions - 2016
General
Unique ID : 94168899322686825981415135420745194018 (0x46D845329D207B4C9482120219071A22)
Complete name : House.of.Strangers.1949.720p.BluRay.DD.FLAC.x264-HaB.mkv
Format : Matroska
Format version : Version 2
File size : 9.10 GiB
Duration : 1 h 41 min
Overall bit rate mode : Variable
Overall bit rate : 12.8 Mb/s
Movie name : House of Strangers / Дом посторонних (1949) – RuTracker
Encoded date : UTC 2018-06-20 22:54:29
Writing application : mkvmerge v23.0.0 ('The Bride Said No') 64-bit
Writing library : libebml v1.3.6 + libmatroska v1.4.9
Video
ID : 1
Format : AVC
Format/Info : Advanced Video Codec
Format profile : [email protected]
Format settings : CABAC / 11 Ref Frames
Format settings, CABAC : Yes
Format settings, RefFrames : 11 frames
Codec ID : V_MPEG4/ISO/AVC
Duration : 1 h 41 min
Bit rate : 12.3 Mb/s
Width : 964 pixels
Height : 720 pixels
Display aspect ratio : 4:3
Frame rate mode : Constant
Frame rate : 23.976 (24000/1001) FPS
Color space : YUV
Chroma subsampling : 4:2:0
Bit depth : 8 bits
Scan type : Progressive
Bits/(Pixel*Frame) : 0.739
Stream size : 8.71 GiB (96%)
Title : House.of.Strangers.1949.720p.BluRay.FLAC.x264-HaB
Writing library : x264 core 148 r2721 72d53ab
Encoding settings : cabac=1 / ref=11 / deblock=1:-3:-3 / analyse=0x3:0x133 / me=tesa / subme=11 / psy=1 / psy_rd=1.10:0.00 / mixed_ref=1 / me_range=24 / chroma_me=1 / trellis=2 / 8x8dct=1 / cqm=0 / deadzone=21,11 / fast_pskip=0 / chroma_qp_offset=-2 / threads=12 / lookahead_threads=3 / sliced_threads=0 / nr=0 / decimate=0 / interlaced=0 / bluray_compat=0 / constrained_intra=0 / bframes=12 / b_pyramid=2 / b_adapt=2 / b_bias=0 / direct=3 / weightb=1 / open_gop=0 / weightp=2 / keyint=250 / keyint_min=23 / scenecut=40 / intra_refresh=0 / rc=crf / mbtree=0 / crf=18.9 / qcomp=0.75 / qpmin=0 / qpmax=69 / qpstep=4 / ip_ratio=1.20 / pb_ratio=1.10 / aq=3:0.75
Language : English
Default : Yes
Forced : No
Audio #1
ID : 2
Format : AC-3
Format/Info : Audio Coding 3
Codec ID : A_AC3
Duration : 1 h 40 min
Bit rate mode : Constant
Bit rate : 192 kb/s
Channel(s) : 2 channels
Channel positions : Front: L R
Sampling rate : 48.0 kHz
Frame rate : 31.250 FPS (1536 SPF)
Bit depth : 16 bits
Compression mode : Lossy
Stream size : 139 MiB (1%)
Title : VO – Виктор Рутилов
Language : Russian
Service kind : Complete Main
Default : Yes
Forced : No
Audio #2
ID : 3
Format : FLAC
Format/Info : Free Lossless Audio Codec
Codec ID : A_FLAC
Duration : 1 h 41 min
Bit rate mode : Variable
Bit rate : 292 kb/s
Channel(s) : 2 channels
Channel positions : Front: L R
Sampling rate : 48.0 kHz
Frame rate : 11.719 FPS (4096 SPF)
Bit depth : 24 bits
Stream size : 211 MiB (2%)
Title : Original
Writing library : libFLAC 1.2.1 (UTC 2007-09-17)
Language : English
Default : No
Forced : No
Audio #3
ID : 4
Format : Vorbis
Format settings, Floor : 1
Codec ID : A_VORBIS
Duration : 1 h 40 min
Bit rate mode : Variable
Bit rate : 80.0 kb/s
Channel(s) : 2 channels
Sampling rate : 48.0 kHz
Frame rate : 71.364 FPS (673 SPF)
Compression mode : Lossy
Delay relative to video : 7 ms
Stream size : 52.2 MiB (1%)
Title : Commentary by Foster Hirsch
Writing library : aoTuV
Language : English
Default : No
Forced : No
Text #1
ID : 5
Format : UTF-8
Codec ID : S_TEXT/UTF8
Codec ID/Info : UTF-8 Plain Text
Duration : 1 h 40 min
Bit rate : 106 b/s
Count of elements : 1160
Stream size : 78.1 KiB (0%)
Title : Vadmamed
Language : Russian
Default : No
Forced : No
Text #2
ID : 6
Format : UTF-8
Codec ID : S_TEXT/UTF8
Codec ID/Info : UTF-8 Plain Text
Duration : 1 h 37 min
Bit rate : 69 b/s
Count of elements : 1218
Stream size : 49.5 KiB (0%)
Language : English
Default : No
Forced : No
Text #3
ID : 7
Format : UTF-8
Codec ID : S_TEXT/UTF8
Codec ID/Info : UTF-8 Plain Text
Duration : 1 h 38 min
Bit rate : 72 b/s
Count of elements : 1313
Stream size : 52.3 KiB (0%)
Title : SDH
Language : English
Default : No
Forced : No
Text #4
ID : 8
Format : UTF-8
Codec ID : S_TEXT/UTF8
Codec ID/Info : UTF-8 Plain Text
Duration : 1 h 40 min
Bit rate : 40 b/s
Count of elements : 1068
Stream size : 30.2 KiB (0%)
Language : French
Default : No
Forced : No
Text #5
ID : 9
Format : UTF-8
Codec ID : S_TEXT/UTF8
Codec ID/Info : UTF-8 Plain Text
Duration : 1 h 38 min
Bit rate : 68 b/s
Count of elements : 1136
Stream size : 49.7 KiB (0%)
Language : Spanish
Default : No
Forced : No
Menu #1
00:00:00.000 : en:01. Main Titles
00:01:13.240 : en:02. Between Brothers
00:07:58.478 : en:03. Seven Years in Jail
00:13:51.096 : en:04. At the Big House
00:17:36.847 : en:05. Gino Monetti
00:22:06.116 : en:06. At First Sight
00:25:09.091 : en:07. Waiting Game
00:27:02.246 : en:08. Family Dinner
00:34:28.233 : en:09. Apartment 11A
00:39:07.053 : en:10. Not Since Eve
00:42:37.096 : en:11. The Engagement Discussion
00:46:09.141 : en:12. Last Night Together
00:53:13.732 : en:13. Sweating It Out
00:54:53.207 : en:14. Another Man
00:58:59.286 : en:15. The Empire That Gino Built
01:08:44.162 : en:16. On Trial
01:12:18.960 : en:17. Jury Tampering
01:19:14.208 : en:18. The New Monetti Bank
01:21:29.301 : en:19. They Must Pay
01:24:25.477 : en:20. Irene's Plea
01:27:35.876 : en:21. Gino Is Dead
01:30:52.197 : en:22. Taking Control
01:34:14.148 : en:23. Joe's Rage
01:38:12.095 : en:24. Saving Joe/End Titles
Menu #2
00:00:00.000 : en:Chapter 1
00:10:29.628 : en:Chapter 2
00:22:07.326 : en:Chapter 3
00:34:30.068 : en:Chapter 4
00:42:38.556 : en:Chapter 5
00:52:51.168 : en:Chapter 6
01:12:23.339 : en:Chapter 7
01:21:33.889 : en:Chapter 8
01:30:57.452 : en:Chapter 9
01:41:24.536 : en:Chapter 10

[9.1 GB] Скачать / Download