Дуэль / Duel (Стивен Спилберг / Steven Spielberg) 2x MVO + AVO (Горчаков) + Original Eng + Sub Rus, Eng - Скачать

Качество: HDTV 1080i
Формат: mkv
Видео: MPEG-2 Video / 17538 kbps / 1920x1080i / 29.970 fps / 16:9
Аудио#1: Russian / Dolby Digital Audio / 5.1 / 48 kHz / 384 kbps |многоголосый закадровый, Universal Pictures Rus|
Аудио#2: Russian / Dolby Digital Audio / 5.1 / 48 kHz / 384 kbps |многоголосый закадровый|
Аудио#3: Russian / Dolby Digital Audio / 5.1 / 48 kHz / 384 kbps |авторский одноголосый, В. Горчаков|
Аудио#4: English / Dolby Digital Audio / 5.1 / 48 kHz / 384 kbps
Субтитры: Russian, English
Сэмпл: -narod.ru-
Цитата:
  1. За исходник дорожки №2 спасибо

бесплатно, subs, hd, torrent, субтитры, fullhd, полная версия, фильм, скачать, высокое качество, кино, download, видео, оригинал, на русском, торрент

  1. На машине, которую персонаж Дэнниса Уивера ошибочно принимает за полицейскую, можно заметить надпись «Grebleips» — прочитанная наоборот фамилия режиссера «Spielberg».
  2. Люсиль Бенсон (женщина на заправочной станции) исполнила похожую роль в другом фильме Спилберга — «1941» (1979). Пожилая пара в автомобиле, который останавливает Манн, также появляется в «Близких контактах третьей степени» (1977).
  3. На грузовике можно заметить семнадцать зарубок.
  4. Машина Манна — Plymouth Valiant модель 1970 года.
  5. Некоторые кадры из фильма использовались в одном из эпизодов сериала «Невероятный Халк» (1978). После того, как об этом узнал Стивен Спилберг, он настоял, чтобы в контрактах к его следующим проектам был обязательный пункт, запрещающий студиям использовать кадры из его фильмов без его согласия.
  6. Номер, по которому звонит Манн своей жене, — реально-существовавший телефонный номер на момент создания фильма.
  7. Во время съёмок сцены, в которой грузовик падает с обрыва, вышло из строя специальное оборудование, необходимое для контроля автомобилем без водителя. Чтобы не терять времени на ремонт, каскадер сел за руль грузовика и выпрыгнул из него за мгновение, до того как машина сорвалась в пропасть.
  8. Когда Кэри Лофтин, сыгравший водителя грузовика, поинтересовался у Спилберга, почему его персонаж с такой настойчивостью преследует Дэвида Манна, Стивен сказал: «Просто, ты — самый отвратительный и грязный сукин сын, которого когда-либо носила земля». На что Кэри ответил: «Парень, тогда я именно тот, кто тебе нужен».
  9. Актерская работа Дэнниса Уивера в «Печати зла» (1958) убедила Спилберга, что лучшего кандидата на роль жертвы не найти.
  10. Для фильма не было построено ни одной декорации.
  11. По задумке авторов фильма, номерные знаки на грузовике сняты с автомобилей, которые он уничтожил. По словам Спилберга, водитель грузовика хотел уничтожить по одной машине в каждом штате.
  12. Частично фильм основан на реальной истории, случившийся с Ричардом Мэтисоном.
  13. Изначально «Дуэль» должна была быть семидесяти четырехминутным телефильмом, снятым специально для компании ABC. Однако, после колоссального успеха на телевидении, продюсеры решили расширить картину до девяноста минут и выпустить её в кинопрокат.
  14. Уже после показа на телевидении Спилберг снял несколько дополнительных сцен для кинотеатральной версии фильма.
  15. Сцена на железнодорожном переезде, где грузовик пытается столкнуть машину Манна под поезд, была специально снята для кинотеатральной версии.
  16. Фильм был снят за 13 дней (не учитывая дополнительные сцены, снятые специально для кинотеатральной версии).
  17. Пять монтажеров работали над картиной.
  18. После завершения съёмок у Спилберга было чуть более трех недель, для того чтобы закончить пост-продакшн.
  19. За фильм мы ни разу не увидим лица водителя грузовика, а также нигде не упоминается его имя. В одноименном рассказе Ричарда Мэтисона водителя зовут Келлер (Keller), что довольно созвучно со словом «киллер» (killer).
  20. Этот телефильм был выпущен на киноэкран в 1973 году и имел хронометраж 88 минут, а самая полная версия — 90 минут.
General
Unique ID : 254214281142040237775808007890005507617 (0xBF3FE3BF11B06F85852FD23A0D59BE21)
Complete name : E:\Duel.mkv
Format : Matroska
Format version : Version 2
File size : 11.9 GiB
Duration : 1h 29mn
Overall bit rate mode : Variable
Overall bit rate : 19.1 Mbps
Encoded date : UTC 2012-11-09 22:04:16
Writing application : mkvmerge v5.8.0 ('No Sleep / Pillow') built on Sep 2 2012 15:37:04
Writing library : libebml v1.2.3 + libmatroska v1.3.0
Video
ID : 1
Format : MPEG Video
Format version : Version 2
Format profile : [email protected]
Format settings, BVOP : Yes
Format settings, Matrix : Custom
Format settings, GOP : M=3, N=15
Codec ID : V_MPEG2
Codec ID/Info : MPEG 1 or 2 Video
Duration : 1h 29mn
Bit rate mode : Variable
Bit rate : 17.1 Mbps
Maximum bit rate : 17.6 Mbps
Width : 1 920 pixels
Height : 1 080 pixels
Display aspect ratio : 16:9
Frame rate mode : Constant
Frame rate : 29.970 fps
Color space : YUV
Chroma subsampling : 4:2:0
Bit depth : 8 bits
Scan type : Interlaced
Scan order : Top Field First
Compression mode : Lossy
Bits/(Pixel*Frame) : 0.276
Stream size : 10.7 GiB (90%)
Default : No
Forced : No
Audio #1
ID : 2
Format : AC-3
Format/Info : Audio Coding 3
Mode extension : CM (complete main)
Format settings, Endianness : Big
Codec ID : A_AC3
Duration : 1h 29mn
Bit rate mode : Constant
Bit rate : 384 Kbps
Channel(s) : 6 channels
Channel positions : Front: L C R, Side: L R, LFE
Sampling rate : 48.0 KHz
Bit depth : 16 bits
Compression mode : Lossy
Stream size : 245 MiB (2%)
Title : Русский AC3, 6ch 384 kbps (многоголосый, Universal Pictures Rus)
Language : Russian
Default : Yes
Forced : No
Audio #2
ID : 3
Format : AC-3
Format/Info : Audio Coding 3
Mode extension : CM (complete main)
Format settings, Endianness : Big
Codec ID : A_AC3
Duration : 1h 29mn
Bit rate mode : Constant
Bit rate : 384 Kbps
Channel(s) : 6 channels
Channel positions : Front: L C R, Side: L R, LFE
Sampling rate : 48.0 KHz
Bit depth : 16 bits
Compression mode : Lossy
Stream size : 245 MiB (2%)
Title : Русский AC3, 6ch 384 kbps (многоголосый)
Language : Russian
Default : No
Forced : No
Audio #3
ID : 4
Format : AC-3
Format/Info : Audio Coding 3
Mode extension : CM (complete main)
Format settings, Endianness : Big
Codec ID : A_AC3
Duration : 1h 29mn
Bit rate mode : Constant
Bit rate : 384 Kbps
Channel(s) : 6 channels
Channel positions : Front: L C R, Side: L R, LFE
Sampling rate : 48.0 KHz
Bit depth : 16 bits
Compression mode : Lossy
Stream size : 245 MiB (2%)
Title : Русский AC3, 6ch 384 kbps (одноголосый, Горчаков)
Language : Russian
Default : No
Forced : No
Audio #4
ID : 5
Format : AC-3
Format/Info : Audio Coding 3
Mode extension : CM (complete main)
Format settings, Endianness : Big
Codec ID : A_AC3
Duration : 1h 29mn
Bit rate mode : Constant
Bit rate : 384 Kbps
Channel(s) : 6 channels
Channel positions : Front: L C R, Side: L R, LFE
Sampling rate : 48.0 KHz
Bit depth : 16 bits
Compression mode : Lossy
Stream size : 245 MiB (2%)
Title : Английский AC3, 6ch 384 kbps
Language : English
Default : No
Forced : No
Text #1
ID : 6
Format : UTF-8
Codec ID : S_TEXT/UTF8
Codec ID/Info : UTF-8 Plain Text
Language : Russian
Default : No
Forced : No
Text #2
ID : 7
Format : UTF-8
Codec ID : S_TEXT/UTF8
Codec ID/Info : UTF-8 Plain Text
Language : English
Default : No
Forced : No

[11.88 GB] Скачать / Download