Фантастическое путешествие / Fantastic Voyage (Ричард Флайшер / Richard Fleischer) MVO + Sub (Rus, Eng) + Original Eng - Скачать

Страна: США
Жанр: фантастика, приключения
Год выпуска: 1966
Продолжительность: 01:40:37

Перевод: Профессиональный (многоголосый закадровый)
Субтитры: русские, английские
Оригинальная аудиодорожка: английский

Режиссер: Ричард Флайшер / Richard Fleischer

В ролях: Стивен Бойд, Рэкел Уэлч, Эдмонд О’Брайен, Дональд Плезенс, Артур О'Коннелл, Уильям Редфилд, Артур Кеннеди, Жан Дел Вэл, Бэрри Коу, Кен Скотт

Описание:
Чешский профессор Бенеш, обладающий секретной стратегической информацией, попадает в аварию, его жизнь висит на волоске. Положение осложняется тем, что смертоносный тромб находится в мозговой артерии профессора. И тогда специальная подводная лодка с экипажем уменьшается до размеров молекулы и шприцем впрыскивается в вену. Время на выполнение операции ограничено - лишь один час...

Тип релиза: BDRip 720p
Контейнер: MKV

Сэмпл:Скачать

Видео: 1280×544 (2.35:1); 12.8 Mbps; 23.976 fps; 0.385 bpp
Аудио 1: Russian; AC3; 48.0 KHz; 2ch; 192 Kbps MVO
Аудио 2:English; AC3; 48.0 KHz; 6ch; 640 Kbps
Аудио 3:English; AC3; 48.0 KHz; 1ch; 192 Kbps Commentary
Аудио 4:English; AC3; 48.0 KHz; 2ch; 224 Kbps Commentary
Формат субтитров: softsub (SRT)

кино, hd, субтитры, бесплатно, торрент, скачать, subs, видео, фильм, оригинал, fullhd, на русском, высокое качество, download, полная версия, torrent

Format : Matroska
Format version : Version 2
File size : 10.1 GiB
Duration : 1h 40mn
Overall bit rate : 14.3 Mbps
Movie name : Fantastic.Voyage.1966.720p.BluRay.DD5.1.x264-LolHD
Encoded date : UTC 2014-08-16 08:06:47
Writing application : mkvmerge v5.0.1 ('Es ist Sommer') built on Oct 9 2011 11:55:43
Writing library : libebml v1.2.2 + libmatroska v1.3.0
Video
ID : 1
Format : AVC
Format/Info : Advanced Video Codec
Format profile : [email protected]
Format settings, CABAC : Yes
Format settings, ReFrames : 12 frames
Codec ID : V_MPEG4/ISO/AVC
Duration : 1h 40mn
Bit rate : 12.8 Mbps
Width : 1 280 pixels
Height : 544 pixels
Display aspect ratio : 2.35:1
Frame rate mode : Constant
Frame rate : 23.976 fps
Color space : YUV
Chroma subsampling : 4:2:0
Bit depth : 8 bits
Scan type : Progressive
Bits/(Pixel*Frame) : 0.767
Stream size : 9.00 GiB (89%)
Title : 710p-LolHD
Writing library : x264 core 142 r2431kMod ac76440
Encoding settings : cabac=1 / ref=12 / deblock=1:-3:-3 / analyse=0x3:0x133 / me=umh / subme=11 / psy=1 / fade_compensate=0.00 / psy_rd=1.07:0.00 / mixed_ref=1 / me_range=32 / chroma_me=1 / trellis=2 / 8x8dct=1 / cqm=0 / deadzone=21,11 / fast_pskip=0 / chroma_qp_offset=-2 / threads=24 / lookahead_threads=4 / sliced_threads=0 / nr=0 / decimate=0 / interlaced=0 / bluray_compat=0 / constrained_intra=0 / fgo=0 / bframes=12 / b_pyramid=2 / b_adapt=2 / b_bias=0 / direct=3 / weightb=1 / open_gop=0 / weightp=2 / keyint=250 / keyint_min=23 / scenecut=40 / intra_refresh=0 / rc=crf / mbtree=0 / crf=16.2000 / qcomp=0.62 / qpmin=0 / qpmax=69 / qpstep=4 / ip_ratio=1.40 / pb_ratio=1.15 / aq=1:0.65
Language : English
Default : Yes
Forced : No
Audio #1
ID : 2
Format : AC-3
Format/Info : Audio Coding 3
Mode extension : CM (complete main)
Format settings, Endianness : Big
Codec ID : A_AC3
Duration : 1h 40mn
Bit rate mode : Constant
Bit rate : 192 Kbps
Channel count : 2 channels
Channel positions : Front: L R
Sampling rate : 48.0 KHz
Bit depth : 16 bits
Compression mode : Lossy
Stream size : 138 MiB (1%)
Title : MVO
Language : Russian
Default : Yes
Forced : No
Audio #2
ID : 3
Format : AC-3
Format/Info : Audio Coding 3
Mode extension : CM (complete main)
Format settings, Endianness : Big
Codec ID : A_AC3
Duration : 1h 40mn
Bit rate mode : Constant
Bit rate : 640 Kbps
Channel count : 6 channels
Channel positions : Front: L C R, Side: L R, LFE
Sampling rate : 48.0 KHz
Bit depth : 16 bits
Compression mode : Lossy
Stream size : 461 MiB (4%)
Title : DD5.1-LolHD
Language : English
Default : No
Forced : No
Audio #3
ID : 4
Format : AC-3
Format/Info : Audio Coding 3
Mode extension : CM (complete main)
Format settings, Endianness : Big
Codec ID : A_AC3
Duration : 1h 40mn
Bit rate mode : Constant
Bit rate : 192 Kbps
Channel count : 1 channel
Channel positions : Front: C
Sampling rate : 48.0 KHz
Bit depth : 16 bits
Compression mode : Lossy
Stream size : 138 MiB (1%)
Title : Commentary
Language : English
Default : No
Forced : No
Audio #4
ID : 5
Format : AC-3
Format/Info : Audio Coding 3
Mode extension : CM (complete main)
Format settings, Endianness : Big
Codec ID : A_AC3
Duration : 1h 40mn
Bit rate mode : Constant
Bit rate : 224 Kbps
Channel count : 2 channels
Channel positions : Front: L R
Sampling rate : 48.0 KHz
Bit depth : 16 bits
Compression mode : Lossy
Stream size : 161 MiB (2%)
Title : Commentary
Language : English
Default : No
Forced : No
Text #1
ID : 6
Format : UTF-8
Codec ID : S_TEXT/UTF8
Codec ID/Info : UTF-8 Plain Text
Language : Russian
Default : No
Forced : No
Text #2
ID : 7
Format : UTF-8
Codec ID : S_TEXT/UTF8
Codec ID/Info : UTF-8 Plain Text
Title : ENG-SRT
Language : English
Default : No
Forced : No
Menu
00:00:00.000 : en:Chapter 01
00:04:05.954 : en:Chapter 02
00:05:48.515 : en:Chapter 03
00:10:44.435 : en:Chapter 04
00:13:45.158 : en:Chapter 05
00:16:30.406 : en:Chapter 06
00:23:19.481 : en:Chapter 07
00:28:12.441 : en:Chapter 08
00:34:04.542 : en:Chapter 09
00:35:23.246 : en:Chapter 10
00:38:18.421 : en:Chapter 11
00:41:45.920 : en:Chapter 12
00:43:25.937 : en:Chapter 13
00:47:56.415 : en:Chapter 14
00:53:58.193 : en:Chapter 15
01:07:03.186 : en:Chapter 16
01:10:57.587 : en:Chapter 17
01:16:05.102 : en:Chapter 18
01:22:08.799 : en:Chapter 19
01:27:51.266 : en:Chapter 20
01:32:31.713 : en:Chapter 21
01:34:00.176 : en:Chapter 22
01:37:29.927 : en:Chapter 23
01:38:59.225 : en:Chapter 24

[10.08 GB] Скачать / Download