Гремящий гром / Раскаты грома / Rolling Thunder (Джон Флинн / John Flynn) DVO (НТВ+) + Original Eng - Скачать

Страна: США
Студия: American International Pictures (AIP)
Жанр: боевик, триллер, драма, криминал
Год выпуска: 1977
Продолжительность: 01:40:07
Перевод: Профессиональный (двухголосый закадровый) (НТВ+)
Субтитры: нет
Оригинальная аудиодорожка: английский
Режиссер: Джон Флинн / John Flynn
В ролях: Уильям Дивэйн, Томми Ли Джонс, Линда Хэйнс, Джеймс Бест, Дэбни Коулмен, Лиза Блейк Ричардс, Люк Аскью, Lawrason Driscoll, Джеймс Виктор, Кэсси Йэтс, Джеймс Н. Харрелл, Джанет Квист
Описание: Когда майор Чарлз Рейни возвращается из Вьетнама в родной Техас, его встречают как героя. Он и его друг Джонни Воден восемь лет мучились в плену. Чарли получил кадиллак с открытым верхом, пару тысяч долларов и новость о том, что его жена с другим. Взорвался Чарли после того, как бандиты отняли у него наградные, убили сына и изуродовали руку. Ребята явно не на того нарвались. Имея стальной крюк вместо руки, он вместе со своим другом Джонни загружает в свою машину целый арсенал, и они начинают методически уничтожать убийц…
Доп. информация:

Тип релиза: BDRip 720p (Исх. BDRemux 1080p / 16:9 / 23,976 fps / 24791 kbps / AVC)
Контейнер: MKV
Видео: MPEG-4 AVC Video, 1280x696p / 1,85:1 (16:9) / 6870 kbps / 23,976 fps / High Profile 4.1 / 2pass
Аудио 1: Russian: AC3 2.0 ch, 192kbps, 48 kHz |двухголосый| (Текст читали: Наталья Казначеева, Денис Некрасов)
Аудио 2: English: DTS 2.0 ch, 16bit, 755kbps, 48 kHz |original|
Главы: как на блюрей


torrent, subs, fullhd, субтитры, бесплатно, hd, видео, фильм, оригинал, кино, торрент, download, высокое качество, на русском, полная версия, скачать

x264 [info]: frame I:891 Avg QP:16.90 size:135316
x264 [info]: frame P:28606 Avg QP:19.41 size: 62701
x264 [info]: frame B:114528 Avg QP:21.28 size: 28315
Общее
Уникальный идентификатор : 213980350624540213460393854551299522274 (0xA0FB1DD17DAECFCFB0771BA44E30FEE2)
Полное имя : Гремящий гром 1977.BDRip.720p.ПД.Eng.mkv
Формат : Matroska
Версия формата : Version 2
Размер файла : 5,48 Гбайт
Продолжительность : 1 ч. 40 м.
Общий поток : 7830 Кбит/сек
Название фильма : Rolling Thunder (1977)
Дата кодирования : UTC 2012-11-18 10:28:55
Программа кодирования : mkvmerge v5.6.0 ('Kenya Kane') built on Jun 29 2012 15:01:44
Библиотека кодирования : libebml v1.2.3 + libmatroska v1.3.0
Видео
Идентификатор : 1
Формат : AVC
Формат/Информация : Advanced Video Codec
Профиль формата : [email protected]
Параметр CABAC формата : Да
Параметр ReFrames формата : 9 кадров
Идентификатор кодека : V_MPEG4/ISO/AVC
Битрейт : 6870 Кбит/сек
Ширина : 1280 пикселей
Высота : 696 пикселей
Соотношение сторон : 1,85:1
Режим частоты кадров : Переменный
Частота кадров в оригинале : 23,976 кадра/сек
Цветовое пространство : YUV
Субдискретизация насыщенности : 4:2:0
Битовая глубина : 8 бит
Тип развёртки : Прогрессивная
Бит/(Пиксели*Кадры) : 0.322
Библиотека кодирования : x264 core 125 r2200 999b753
Настройки программы : cabac=1 / ref=9 / deblock=1:-2:-2 / analyse=0x3:0x133 / me=umh / subme=10 / psy=1 / psy_rd=1.00:0.00 / mixed_ref=1 / me_range=32 / chroma_me=1 / trellis=2 / 8x8dct=1 / cqm=0 / deadzone=21,11 / fast_pskip=0 / chroma_qp_offset=-2 / threads=6 / lookahead_threads=1 / sliced_threads=0 / nr=0 / decimate=1 / interlaced=0 / bluray_compat=0 / constrained_intra=0 / bframes=8 / b_pyramid=2 / b_adapt=2 / b_bias=0 / direct=3 / weightb=1 / open_gop=0 / weightp=2 / keyint=240 / keyint_min=24 / scenecut=40 / intra_refresh=0 / rc=2pass / mbtree=0 / bitrate=6870 / ratetol=1.0 / qcomp=0.60 / qpmin=0 / qpmax=56 / qpstep=4 / cplxblur=20.0 / qblur=0.5 / ip_ratio=1.40 / pb_ratio=1.30 / aq=1:1.00
Язык : English
Default : Да
Forced : Нет
Аудио #1
Идентификатор : 2
Формат : AC-3
Формат/Информация : Audio Coding 3
Расширение режима : CM (complete main)
Параметр Endianness формата : Big
Идентификатор кодека : A_AC3
Продолжительность : 1 ч. 40 м.
Вид битрейта : Постоянный
Битрейт : 192 Кбит/сек
Каналы : 2 канала
Расположение каналов : Front: L R
Частота : 48,0 КГц
Битовая глубина : 16 бит
Метод сжатия : С потерями
Размер потока : 137 Мбайт (2%)
Заголовок : AC3 2.0ch 192kbps - двухголосый (НТВ+)
Язык : Russian
Default : Да
Forced : Нет
Аудио #2
Идентификатор : 3
Формат : DTS
Формат/Информация : Digital Theater Systems
Идентификатор кодека : A_DTS
Продолжительность : 1 ч. 40 м.
Вид битрейта : Постоянный
Битрейт : 755 Кбит/сек
Каналы : 2 канала
Расположение каналов : Front: L R
Частота : 48,0 КГц
Битовая глубина : 16 бит
Метод сжатия : С потерями
Размер потока : 540 Мбайт (10%)
Заголовок : DTS 2.0ch 16bit 755kbps - original
Язык : English
Default : Нет
Forced : Нет
Меню
00:00:00.000 : en:00:00:00.000
00:07:35.121 : en:00:07:35.121
00:17:32.760 : en:00:17:32.760
00:24:56.703 : en:00:24:56.703
00:30:07.180 : en:00:30:07.180
00:36:18.259 : en:00:36:18.259
00:41:18.184 : en:00:41:18.184
00:46:04.845 : en:00:46:04.845
00:54:11.456 : en:00:54:11.456
00:58:43.061 : en:00:58:43.061
01:04:49.802 : en:01:04:49.802
01:13:17.518 : en:01:13:17.518
01:22:59.224 : en:01:22:59.224
01:27:23.696 : en:01:27:23.696
01:37:47.778 : en:01:37:47.778
01:39:48.649 : en:01:39:48.649

[5.48 GB] Скачать / Download