Капо / Kapo (Джилло Понтекорво / Gillo Pontecorvo) Sub (Rus, Eng) + Original (Ita) - Скачать

Страна: Италия, Франция, Югославия
Студия: Cineriz, Francinex, Lovcen Film, Vides Cinematografica, Zebra Films
Жанр: драма, исторический
Год выпуска: 1960
Продолжительность: 01:51:53
Перевод: Субтитры любительские -Николай DeZ3000
Субтитры: русские, английские
Оригинальная аудиодорожка: итальянский
Режиссер: Джилло Понтекорво / Gillo Pontecorvo
В ролях: Сьюзен Страсберг, Лоран Терзиефф, Эмманюэль Рива, Диди Перего, Джанни Гарко, Аннабелла Бези, Грациэлла Гальвани, Паола Питагора, Элеонора Беллинзахи, Бруно Шипиони, Драгомир Фелба, Мира Динулович, Семка Соколович-Берток, Дирьяна Доджич, Растислав Йович
Описание: Основанная на реальных фактах, история нравственного падения еврейской девушки, попавшей в невообразимые условия гитлеровской фабрики смерти Освенцим и превратившейся в капо (надсмотрщицу). Чтобы не голодать, жить без постоянного страха смерти, не опасаясь изнурительных каторжных работ, нужно только одно — быть жестокой.
Доп. информация: В найденный в сети веб-захват, содержащий итальянский оригинал и англйиские субтитры, добавлены синхронизированныеsovsem-neduhovenслегка исправленные по орфографии и пунктуации русские субтитры из релиза -filmz.pro/link/52361458.
Сэмпл:https://cloud.mail.ru/public/M9Xv/WVBwK4XyU
Тип релиза: WEB-DL 1080p
Контейнер: MKV
Видео: 13400 Кбит/сек, AVC 1800*1080 (5:3), 25,000 кадров/сек, CABAC
Аудио: Итальянский, 224 Кбит/сек, 48,0 КГц, 2 канала, E-AC-3
Формат субтитров: softsub (SRT)07.05.18 Торрент-файл перезалит.Изменено название файла по рекомендации модератора. Сэмпл и отчёт перезалиты.

скачать, на русском, fullhd, полная версия, видео, субтитры, бесплатно, торрент, оригинал, высокое качество, фильм, download, кино, hd, subs, torrent

 Общее
Уникальный идентификатор : 271934249407876876014583032111663340929 (0xCC94A1A2603B65C87ADC06C2CB4EDD81)
Полное имя : O:\MONAR\Художественные фильмы\Зарубежное кино\Капо (1960) WEB-DL 1080p.mkv
Формат : Matroska
Версия формата : Version 4 / Version 2
Размер файла : 10,7 Гбайт
Продолжительность : 1 ч. 51 м.
Режим общего битрейта : Переменный
Общий поток : 13,6 Мбит/сек
Название фильма : Kapo (1960)
Дата кодирования : UTC 2018-05-06 16:18:15
Программа кодирования : mkvmerge v19.0.0 ('Brave Captain') 64-bit
Библиотека кодирования : libebml v1.3.5 + libmatroska v1.4.8
Видео
Идентификатор : 1
Формат : AVC
Формат/Информация : Advanced Video Codec
Профиль формата : [email protected]
Настройки формата : CABAC / 4 Ref Frames
Параметр CABAC формата : Да
Параметр RefFrames формата : 4 кадра
Идентификатор кодека : V_MPEG4/ISO/AVC
Продолжительность : 1 ч. 51 м.
Вид битрейта : Переменный
Битрейт : 13,4 Мбит/сек
Максимальный битрейт : 15,0 Мбит/сек
Ширина : 1800 пикселей
Высота : 1080 пикселей
Соотношение сторон : 5:3
Режим частоты кадров : Постоянный
Частота кадров : 25,000 кадров/сек
Цветовое пространство : YUV
Субдискретизация насыщенности : 4:2:0
Битовая глубина : 8 бит
Тип развёртки : Прогрессивная
Бит/(Пиксели*Кадры) : 0.276
Размер потока : 10,5 Гбайт (98%)
Язык : Italian
Default : Да
Forced : Нет
Цветовой диапазон : Limited
Основные цвета : BT.709
Характеристики трансфера : BT.709
Коэффициенты матрицы : BT.709
Аудио
Идентификатор : 2
Формат : E-AC-3
Формат/Информация : Enhanced Audio Coding 3
Идентификатор кодека : A_EAC3
Продолжительность : 1 ч. 51 м.
Вид битрейта : Постоянный
Битрейт : 224 Кбит/сек
Каналы : 2 канала
Расположение каналов : Front: L R
Частота : 48,0 КГц
Частота кадров : 187,500 кадров/сек (256 SPF)
Метод сжатия : С потерями
Размер потока : 179 Мбайт (2%)
Заголовок : original
Язык : Italian
ServiceKind/String : Complete Main
Default : Да
Forced : Нет
Текст #1
Идентификатор : 3
Формат : UTF-8
Идентификатор кодека : S_TEXT/UTF8
Идентификатор кодека/Информация : UTF-8 Plain Text
Продолжительность : 1 ч. 50 м.
Битрейт : 62 бит/сек
ElementCount : 893
Размер потока : 50,8 Кбайт (0%)
Заголовок : srt
Язык : Russian
Default : Да
Forced : Нет
Текст #2
Идентификатор : 4
Формат : UTF-8
Идентификатор кодека : S_TEXT/UTF8
Идентификатор кодека/Информация : UTF-8 Plain Text
Продолжительность : 1 ч. 50 м.
Битрейт : 35 бит/сек
ElementCount : 891
Размер потока : 28,7 Кбайт (0%)
Заголовок : srt
Язык : English
Default : Нет
Forced : Нет

[10.66 GB] Скачать / Download