Меченая женщина / Marked Woman (Ллойд Бэйкон / Lloyd Bacon) MVO (Светла) + DVO (РенТВ) + AVO (Визгунов) + Original Eng + Sub Eng - Скачать

Год выпуска:1937
Страна:США
Жанр:фильм-нуар, триллер, драма
Продолжительность:01:36:32
Перевод 1:Профессиональный (многоголосый закадровый)Светла
Перевод 2:Профессиональный (двухголосый закадровый)РЕН ТВ
Перевод 3:Авторский (одноголосый закадровый)Сергей Визгунов
Оригинальная аудиодорожка:Английская
Субтитры:Английские (полные, для слабослышащих)

Режиссер:Ллойд Бэйкон / Lloyd Bacon
В ролях:Бетт Дэвис /Bette Davis, Хамфри Богарт /Humphrey Bogart, Изабель Джуэлл /Isabel Jewell, Эдуардо Кьяннелли /Eduardo Ciannelli, Лола Лэйн /Lola Lane

Описание:
Прокурор Дэвид Грэм расставляет сети на самого могущественного гангстера Нью-Йорка 1930-х Джонни Вэннинга, подмявшего под себя и полицию, и политиков. Чтобы вывести его на чистую воду, Грэм нужны показания Мэри Дуайт, девушки лёгкого поведения из заведения, принадлежащего Вэннингу. Поначалу она отказывается сотрудничать с законом, но после того, как люди Вэннинга убивают её младшую сестру, у Мэри исчезает страх и она готова идти до конца...

За РЕН ТВ и Визгунова спасибоpalmeiras, за Светлу –Drew^13.
Отдельное спасибоUgo927за помощь.
| |Сэмпл

Качество:WEB-DL 1080p (SbR)
Контейнер:MKV
Видео:AVC, 1440x1080 (1.33:1), 23.976 fps, 14174 kbps
Аудио 1:Русский AC3 2.0, 48 kHz, 192 kbps — Светла
Аудио 2:Русский AC3 2.0, 48 kHz, 192 kbps — РЕН ТВ
Аудио 3:Русский AC3 2.0, 48 kHz, 192 kbps — Визгунов
Аудио 4:Английский AC3 1.0, 48 kHz, 192 kbps — DVD
Аудио 5:Английкий AAC 2.0, 48 kHz, 125 kbps — WEB
Формат субтитров:softsub (SRT)

видео, на русском, кино, высокое качество, фильм, торрент, бесплатно, torrent, subs, скачать, hd, download, оригинал, полная версия, субтитры, fullhd

General
Unique ID : 226328597751220529194725017265839618562 (0xAA454D67FDAA6635BDA8847CC0CD3A02)
Complete name : Marked.Woman.1937.1080p.WEB-DL.DD2.0.H.264-SbR.mkv
Format : Matroska
Format version : Version 2
File size : 10.2 GiB
Duration : 1 h 36 min
Overall bit rate mode : Variable
Overall bit rate : 15.1 Mb/s
Movie name : Marked Woman / Меченая женщина (1937) – RuTracker
Encoded date : UTC 2017-07-12 16:56:08
Writing application : mkvmerge v12.0.0 ('Trust / Lust') 64bit
Writing library : libebml v1.3.4 + libmatroska v1.4.5
Cover : Yes
Attachments : cover.jpg
Video
ID : 1
Format : AVC
Format/Info : Advanced Video Codec
Format profile : [email protected]
Format settings, CABAC : Yes
Format settings, ReFrames : 4 frames
Codec ID : V_MPEG4/ISO/AVC
Duration : 1 h 36 min
Bit rate mode : Variable
Bit rate : 14.2 Mb/s
Maximum bit rate : 15.0 Mb/s
Width : 1 440 pixels
Height : 1 080 pixels
Display aspect ratio : 4:3
Frame rate mode : Constant
Frame rate : 23.976 (24000/1001) FPS
Color space : YUV
Chroma subsampling : 4:2:0
Bit depth : 8 bits
Scan type : Progressive
Bits/(Pixel*Frame) : 0.380
Stream size : 9.56 GiB (94%)
Title : Marked.Woman.1937.1080p.WEB-DL.AAC2.0.H.264-SbR
Writing library : x264 core 148 r2623 d5b2374
Encoding settings : cabac=1 / ref=4 / deblock=1:-1:-1 / analyse=0x3:0x133 / me=umh / subme=9 / psy=1 / psy_rd=1.00:0.15 / mixed_ref=1 / me_range=24 / chroma_me=1 / trellis=2 / 8x8dct=1 / cqm=0 / deadzone=21,11 / fast_pskip=1 / chroma_qp_offset=-3 / threads=34 / lookahead_threads=5 / sliced_threads=0 / nr=150 / decimate=1 / interlaced=0 / bluray_compat=0 / constrained_intra=0 / bframes=8 / b_pyramid=2 / b_adapt=2 / b_bias=0 / direct=3 / weightb=1 / open_gop=0 / weightp=2 / keyint=120 / keyint_min=61 / scenecut=0 / intra_refresh=0 / rc_lookahead=120 / rc=crf / mbtree=1 / crf=18.0 / qcomp=0.60 / qpmin=0 / qpmax=69 / qpstep=4 / vbv_maxrate=15000 / vbv_bufsize=31250 / crf_max=0.0 / nal_hrd=vbr / filler=0 / ip_ratio=1.40 / aq=3:1.00
Language : English
Default : Yes
Forced : No
Color range : Limited
Color primaries : BT.709
Transfer characteristics : BT.709
Matrix coefficients : BT.709
Audio #1
ID : 2
Format : AC-3
Format/Info : Audio Coding 3
Format settings, Endianness : Big
Codec ID : A_AC3
Duration : 1 h 36 min
Bit rate mode : Constant
Bit rate : 192 kb/s
Channel(s) : 2 channels
Channel positions : Front: L R
Sampling rate : 48.0 kHz
Frame rate : 31.250 FPS (1536 spf)
Bit depth : 16 bits
Compression mode : Lossy
Stream size : 133 MiB (1%)
Title : MVO – Светла
Language : Russian
Service kind : Complete Main
Default : Yes
Forced : No
Audio #2
ID : 3
Format : AC-3
Format/Info : Audio Coding 3
Format settings, Endianness : Big
Codec ID : A_AC3
Duration : 1 h 36 min
Bit rate mode : Constant
Bit rate : 192 kb/s
Channel(s) : 2 channels
Channel positions : Front: L R
Sampling rate : 48.0 kHz
Frame rate : 31.250 FPS (1536 spf)
Bit depth : 16 bits
Compression mode : Lossy
Stream size : 133 MiB (1%)
Title : DVO – РенТВ
Language : Russian
Service kind : Complete Main
Default : No
Forced : No
Audio #3
ID : 4
Format : AC-3
Format/Info : Audio Coding 3
Format settings, Endianness : Big
Codec ID : A_AC3
Duration : 1 h 36 min
Bit rate mode : Constant
Bit rate : 192 kb/s
Channel(s) : 2 channels
Channel positions : Front: L R
Sampling rate : 48.0 kHz
Frame rate : 31.250 FPS (1536 spf)
Bit depth : 16 bits
Compression mode : Lossy
Stream size : 133 MiB (1%)
Title : AVO – С.Визгунов
Language : Russian
Service kind : Complete Main
Default : No
Forced : No
Audio #4
ID : 5
Format : AC-3
Format/Info : Audio Coding 3
Format settings, Endianness : Big
Codec ID : A_AC3
Duration : 1 h 36 min
Bit rate mode : Constant
Bit rate : 192 kb/s
Channel(s) : 1 channel
Channel positions : Front: C
Sampling rate : 48.0 kHz
Frame rate : 31.250 FPS (1536 spf)
Bit depth : 16 bits
Compression mode : Lossy
Stream size : 133 MiB (1%)
Title : Original (DVD)
Language : English
Service kind : Complete Main
Default : No
Forced : No
Audio #5
ID : 6
Format : AAC
Format/Info : Advanced Audio Codec
Format profile : LC
Codec ID : A_AAC
Duration : 1 h 36 min
Bit rate : 125 kb/s
Channel(s) : 2 channels
Channel positions : Front: L R
Sampling rate : 48.0 kHz
Frame rate : 46.875 FPS (1024 spf)
Compression mode : Lossy
Stream size : 86.6 MiB (1%)
Title : Original (WEB-DL)
Language : English
Default : No
Forced : No
Text #1
ID : 7
Format : UTF-8
Codec ID : S_TEXT/UTF8
Codec ID/Info : UTF-8 Plain Text
Duration : 1 h 33 min
Bit rate : 86 b/s
Count of elements : 1599
Stream size : 59.5 KiB (0%)
Language : English
Default : No
Forced : No
Text #2
ID : 8
Format : UTF-8
Codec ID : S_TEXT/UTF8
Codec ID/Info : UTF-8 Plain Text
Duration : 1 h 35 min
Bit rate : 86 b/s
Count of elements : 1646
Stream size : 60.5 KiB (0%)
Title : SDH
Language : English
Default : No
Forced : No
Menu
00:00:00.000 : en:01. Credits
00:01:16.707 : en:02. Vanning Takes Over
00:05:35.332 : en:03. Smart Girl
00:08:40.985 : en:04. All The Angles
00:11:47.671 : en:05. My Silver Dollar Man
00:14:41.179 : en:06. Mr. And Mrs. Doakes
00:17:45.863 : en:07. Her Ill-Fated Mark
00:22:23.808 : en:08. Kid Sister
00:27:06.757 : en:09. Suspicion Of Murder
00:29:54.292 : en:10. The Lineup
00:33:24.303 : en:11. Graham Grills Mary
00:36:41.367 : en:12. In A Spot
00:39:57.197 : en:13. Mary On The Stand
00:45:59.759 : en:14. The Case Goes South
00:49:48.288 : en:15. Sister's Shame
00:53:16.363 : en:16. Party Girl Betty
00:57:21.409 : en:17. Sisters Fall Out
01:00:02.404 : en:18. Betts Falls Down
01:02:35.557 : en:19. From My Grave
01:05:18.220 : en:20. Why Her?!?
01:08:29.278 : en:21. Beaten
01:13:14.364 : en:22. Emmy Lou Flees
01:17:10.434 : en:23. Fed Up With Being Afraid
01:20:53.991 : en:24. Girls On The Stand
01:25:43.982 : en:25. Marked Woman
01:27:58.249 : en:26. The Verdict
01:31:09.440 : en:27. We'll Meet Again
01:35:51.889 : en:28. Cast List

[10.16 GB] Скачать / Download