Муха / The Fly (Курт Нойманн / Kurt Neumann) MVO + Original Eng + Sub Eng - Скачать

Страна: США
Жанр: драма, ужасы, мистика, фантастика
Год выпуска: 1958
Продолжительность: 01:33:47
Перевод: Профессиональный (многоголосый закадровый)
Субтитры: английские
Оригинальная аудиодорожка: английский
Режиссер: Курт Нойманн / Kurt Neumann
В ролях: Дэвид Хедисон, Пэт Оуенс, Винсент Прайс, Херберт Маршалл, Кэтлин Фримен, Бетти Лу Джерсон, Чарльз Херберт, Юджин Борден, Гарри Картер, Артюр Дюлак
Описание: Ученый Андрэ Деламбре, добившийся способа телепортировать живые организмы, ставит опыт на себе и оказывается жертвой чудовищной случайности. Он обменивается набором генов с попавшей в телепортационную камеру мухой, и постепенно начинает превращаться в человека-насекомое. Теперь ему необходимо поймать «скрестившуюся» с ним муху, чтобы попытаться запустить процесс в обратном порядке. Ему отчаянно пытаются помочь жена Хелен и все домашние, но проклятая муха ускользает, оставляя Андрэ мутировать в монстра...
Сэмпл:http://www.sendspace.com/file/3bm77e
Тип релиза: BDRemux 1080p
Контейнер: MKV
Видео: MPEG4 Video (H264) 1920x1080 23.976fps 38017 kbps
Аудио #1: русский 48 kHz, AC3 Dolby Digital, 2/0 ch, 224 kbps - многоголосый
Аудио #2: английский 48 kHz, DTS-HD Master Audio, 4/0 ch, ~2944 kbps, (DTS Core: 4.0 / 48 kHz / 1509 kbps / 24-bit) - оригинал
Аудио #3: английский 48 kHz, Dolby Digital, 2/0 ch, 224 kbps - комментарии Дэвида Хедисона


Сообщения из этой темы были выделены в отдельный топикВыделено из: Муха / The Fly (Курт Нойманн / Kurt Neumann) [1958, США, драма, ужасы, мистика,... [4559578]

скачать, torrent, субтитры, hd, кино, на русском, полная версия, фильм, download, торрент, subs, высокое качество, бесплатно, fullhd, видео, оригинал

Format : Matroska
Format version : Version 4 / Version 2
File size : 27.0 GiB
Duration : 1h 33mn
Overall bit rate mode : Variable
Overall bit rate : 41.3 Mbps
Encoded date : UTC 2013-10-14 17:30:58
Writing application : mkvmerge v6.4.1 ('Omega Point') built on Sep 16 2013 22:05:10
Writing library : libebml v1.3.0 + libmatroska v1.4.1
Video
ID : 1
Format : AVC
Format/Info : Advanced Video Codec
Format profile : [email protected]
Format settings, CABAC : Yes
Format settings, ReFrames : 4 frames
Codec ID : V_MPEG4/ISO/AVC
Duration : 1h 33mn
Bit rate mode : Variable
Maximum bit rate : 39.0 Mbps
Width : 1 920 pixels
Height : 1 080 pixels
Display aspect ratio : 16:9
Frame rate mode : Constant
Frame rate : 23.976 fps
Color space : YUV
Chroma subsampling : 4:2:0
Bit depth : 8 bits
Scan type : Progressive
Default : Yes
Forced : No
Audio #1
ID : 2
Format : AC-3
Format/Info : Audio Coding 3
Mode extension : CM (complete main)
Format settings, Endianness : Big
Codec ID : A_AC3
Duration : 1h 33mn
Bit rate mode : Constant
Bit rate : 224 Kbps
Channel count : 2 channels
Channel positions : Front: L R
Sampling rate : 48.0 KHz
Bit depth : 16 bits
Compression mode : Lossy
Stream size : 150 MiB (1%)
Language : Russian
Default : Yes
Forced : Yes
Audio #2
ID : 3
Format : DTS
Format/Info : Digital Theater Systems
Format profile : MA / Core
Mode : 16
Format settings, Endianness : Big
Codec ID : A_DTS
Duration : 1h 33mn
Bit rate mode : Variable
Bit rate : Unknown / 1 509 Kbps
Channel count : 4 channels
Channel positions : Front: L C R, Back: C
Sampling rate : 48.0 KHz
Bit depth : 24 bits
Compression mode : Lossless / Lossy
Language : English
Default : No
Forced : No
Audio #3
ID : 4
Format : AC-3
Format/Info : Audio Coding 3
Mode extension : CM (complete main)
Format settings, Endianness : Big
Codec ID : A_AC3
Duration : 1h 33mn
Bit rate mode : Constant
Bit rate : 224 Kbps
Channel count : 2 channels
Channel positions : Front: L R
Sampling rate : 48.0 KHz
Bit depth : 16 bits
Compression mode : Lossy
Stream size : 150 MiB (1%)
Language : English
Default : No
Forced : No
Text
ID : 5
Format : UTF-8
Codec ID : S_TEXT/UTF8
Codec ID/Info : UTF-8 Plain Text
Language : English
Default : No
Forced : No

[27.04 GB] Скачать / Download