Нежный капкан / Нежная ловушка / The Tender Trap (Чарлз Уолтерз / Charles Walters) VO (BBC Saint-Petersburg) + Original Eng + Sub (Rus, Eng) - Скачать

Год выпуска:1955
Страна:США
Жанр:комедия
Продолжительность:01:50:54
Перевод:Студийный (одноголосый закадровый)BBC Saint-Petersburg
Оригинальная аудиодорожка:Английская
Субтитры:Русские, английские

Режиссер:Чарлз Уолтерз / Charles Walters
В ролях:Фрэнк Синатра, Дебби Рейнолдс, Дэвид Уэйн, Селеста Холм, Йарма Левис, Лола Олбрайт, Кэролин Джонс, Ховард Ст. Джон, Джои Фэй

Описание:
Чарли Ридер — успешный театральный агент. Не менее успешен он и в отношениях с девушками. Его многочисленные подружки приходят и уходят, готовят и убирают для него. Однажды на прослушивании он встречает актрису и певицу Джули Гиллис — девушку, которая живет строго по плану. Согласну плану, она должна выйти замуж, бросить сцену и воспитывать детей уже к 22 годам. После несколький свиданий, Джули сообщает Чарли, что она не выйдет за него замуж, если он не прекратит встречи со всеми своими девушками. Это неожиданное заявление очаровывает Чарли и он начинает влюбляться в Джули. Однажды к нему приезжает его старый друг Джо, женатый и с тремя детьми. Джо влюбляется в Сильвию, девушку Чарли. Сильвии скоро стукнет 33 и она по-прежнему надеется выйти замуж за Чарли. Она с волнением ждет предложения руки и сердца, но ее ждет неприятный сюрприз…

За дорожку спасибоru.slame. Отдельное спасибоUgo927за помощь.
| |Сэмпл

Качество:WEB-DL 1080p (SbR)
Контейнер:MKV
Видео:AVC (x264), 1920x1080 (2.56:1), 23.976 fps, 14543 kbps
Аудио 1:Русский AC3 5.1, 48 kHz, 448 kbps
Аудио 2:Английский AC3 5.1, 48 kHz, 448 kbps

кино, fullhd, оригинал, высокое качество, скачать, видео, торрент, subs, на русском, бесплатно, полная версия, субтитры, hd, download, фильм, torrent

General
Unique ID : 178856673084435773161603673627030826879 (0x868E8AD08C1C335888000E939575AF7F)
Complete name : The.Tender.Trap.1955.1080p.WEB-DL.DD5.1.H.264-SbR.mkv
Format : Matroska
Format version : Version 2
File size : 12.0 GiB
Duration : 1 h 50 min
Overall bit rate mode : Variable
Overall bit rate : 15.4 Mb/s
Movie name : The Tender Trap / Нежный капкан (1955) – RuTracker
Encoded date : UTC 2016-12-04 21:35:00
Writing application : mkvmerge v9.6.0 ('Slave To Your Mind') 64bit
Writing library : libebml v1.3.4 + libmatroska v1.4.5
Cover : Yes
Attachments : cover.jpg
Video
ID : 1
Format : AVC
Format/Info : Advanced Video Codec
Format profile : [email protected]
Format settings, CABAC : Yes
Format settings, ReFrames : 4 frames
Codec ID : V_MPEG4/ISO/AVC
Duration : 1 h 50 min
Bit rate mode : Variable
Bit rate : 14.5 Mb/s
Maximum bit rate : 15.0 Mb/s
Width : 1 920 pixels
Height : 1 080 pixels
Display aspect ratio : 16:9
Frame rate mode : Constant
Frame rate : 23.976 (24000/1001) FPS
Color space : YUV
Chroma subsampling : 4:2:0
Bit depth : 8 bits
Scan type : Progressive
Bits/(Pixel*Frame) : 0.293
Stream size : 11.3 GiB (94%)
Title : The.Tender.Trap.1955.1080p.WEB-DL.DD5.1.H.264-SbR
Writing library : x264 core 148 r2623 d5b2374
Encoding settings : cabac=1 / ref=4 / deblock=1:-1:-1 / analyse=0x3:0x133 / me=umh / subme=9 / psy=1 / psy_rd=1.00:0.15 / mixed_ref=1 / me_range=24 / chroma_me=1 / trellis=2 / 8x8dct=1 / cqm=0 / deadzone=21,11 / fast_pskip=1 / chroma_qp_offset=-3 / threads=34 / lookahead_threads=5 / sliced_threads=0 / nr=150 / decimate=1 / interlaced=0 / bluray_compat=0 / constrained_intra=0 / bframes=8 / b_pyramid=2 / b_adapt=2 / b_bias=0 / direct=3 / weightb=1 / open_gop=0 / weightp=2 / keyint=120 / keyint_min=61 / scenecut=0 / intra_refresh=0 / rc_lookahead=120 / rc=crf / mbtree=1 / crf=18.0 / qcomp=0.60 / qpmin=0 / qpmax=69 / qpstep=4 / vbv_maxrate=15000 / vbv_bufsize=31250 / crf_max=0.0 / nal_hrd=vbr / filler=0 / ip_ratio=1.40 / aq=3:1.00
Language : English
Default : Yes
Forced : No
Color range : Limited
Color primaries : BT.709
Transfer characteristics : BT.709
Matrix coefficients : BT.709
Audio #1
ID : 2
Format : AC-3
Format/Info : Audio Coding 3
Mode extension : CM (complete main)
Format settings, Endianness : Big
Codec ID : A_AC3
Duration : 1 h 50 min
Bit rate mode : Constant
Bit rate : 448 kb/s
Channel(s) : 6 channels
Channel positions : Front: L C R, Side: L R, LFE
Sampling rate : 48.0 kHz
Frame rate : 31.250 FPS (1536 spf)
Compression mode : Lossy
Stream size : 354 MiB (3%)
Title : VO – BBC Saint-Petersburg
Language : Russian
Default : Yes
Forced : No
Audio #2
ID : 3
Format : AC-3
Format/Info : Audio Coding 3
Mode extension : CM (complete main)
Format settings, Endianness : Big
Codec ID : A_AC3
Duration : 1 h 50 min
Bit rate mode : Constant
Bit rate : 448 kb/s
Channel(s) : 6 channels
Channel positions : Front: L C R, Side: L R, LFE
Sampling rate : 48.0 kHz
Frame rate : 31.250 FPS (1536 spf)
Compression mode : Lossy
Stream size : 354 MiB (3%)
Title : Original
Language : English
Default : No
Forced : No
Text #1
ID : 4
Format : UTF-8
Codec ID : S_TEXT/UTF8
Codec ID/Info : UTF-8 Plain Text
Duration : 1 h 47 min
Bit rate : 137 b/s
Count of elements : 1713
Stream size : 109 KiB (0%)
Language : Russian
Default : No
Forced : No
Text #2
ID : 5
Format : UTF-8
Codec ID : S_TEXT/UTF8
Codec ID/Info : UTF-8 Plain Text
Duration : 1 h 50 min
Bit rate : 79 b/s
Count of elements : 2382
Stream size : 64.4 KiB (0%)
Language : English
Default : No
Forced : No
Text #3
ID : 6
Format : UTF-8
Codec ID : S_TEXT/UTF8
Codec ID/Info : UTF-8 Plain Text
Duration : 1 h 50 min
Bit rate : 81 b/s
Count of elements : 2453
Stream size : 65.8 KiB (0%)
Title : SDH
Language : English
Default : No
Forced : No

[11.96 GB] Скачать / Download