Ниагара / Niagara (Генри Хэтэуэй / Henry Hathaway) 4x MVO + Original Eng + Sub (Rus, Eng) - Скачать

Ниагара
Niagara

«Marilyn Monroe and 'Niagara' a raging torrent of emotion that even nature can't control!»

Страна: США
Жанр: фильм-нуар, триллер
Год выпуска: 1952
Продолжительность: 01:28:52

Перевод: Профессиональный (многоголосый, закадровый)
Субтитры: Русские, английские
Оригинальная аудиодорожка: английский

Режиссер:
Генри Хэтэуэй / Henry Hathaway

В ролях:
Мэрилин Монро, Джозеф Коттен, Джин Питерс,
Макс Шоуолтер, Денис О’Ди, Ричард Аллан, Дон Уилсон, Лёрин Таттл, Расселл Коллинз, Уилл Райт, Генри Бекман, Гарри Кэри мл., Билл Кунтц, Роберт Эллис, Ховард Энджел, Нил Фицджералд, Глория Гордон, Джордж Айвз, Арч Джонсон, Лестер Мэтьюз, Шон МакКлори, Норман МакКэй, Одри Монтью, Патрик О’Мур, Марджори Рэмбо, Том Рейнольдс, Уиллард Сэйдж, Минерва Урекал, Нина Варела, Джин Уэссон, Карлтон Янг

Описание: Молодожены Полли и Рэй Катлеры приезжают в коттедж возле водопада и знакомятся с еще одной супружеской парой, Джорджем и Роуз Лумисами.
Роуз с самого начала всем доверительно сообщает, что ее муж значительно старше ее, что его мучает депрессия и его только что выпустили из психиатрической лечебницы.
Позже Полли видит, как Роуз целуется с молодым человеком, и узнает, что парочка собирается убить Джорджа...

Качество видео:BDRemux 1080p
Формат видео: MKV
Video: MPEG-4 AVC Video / 32353 kbps / 1080p / 23,976 fps / 16:9 / High Profile 4.1
Audio: Russian / Dolby Digital Audio / 2.0 / 48 kHz / 192 kbps Профессиональный (многоголосый, закадровый) (Двадцатый Век Фокс СНГ)
Audio: Russian / Dolby Digital Audio / 2.0 / 48 kHz / 192 kbps Профессиональный (многоголосый, закадровый) (по заказу 1 канала)
Audio: Russian / Dolby Digital Audio / 2.0 / 48 kHz / 192 kbps Профессиональный (многоголосый, закадровый) (SomeWax)
Audio: Russian / Dolby Digital Audio / 2.0 / 48 kHz / 192 kbps Профессиональный (многоголосый, закадровый) (Неизвестно)
Audio: English / DTS-HD Master Audio / 5.1 / 48 kHz / 3151 kbps / 24-bit (DTS Core: 5.1 / 48 kHz / 1509 kbps / 24-bit)

бесплатно, torrent, кино, оригинал, торрент, скачать, subs, fullhd, фильм, видео, hd, download, субтитры, на русском, высокое качество, полная версия

General
Unique ID : 232073299435461536690450492057248726888 (0xAE97B1111FE3491DA51EAB02D5F9FF68)
Complete name : E:\Niagara.1952.BDRemux 1080p.mkv
Format : Matroska
Format version : Version 4 / Version 2
File size : 22.5 GiB
Duration : 1h 28mn
Overall bit rate mode : Variable
Overall bit rate : 36.3 Mbps
Encoded date : UTC 2013-08-16 12:26:39
Writing application : mkvmerge v6.2.0 ('Promised Land') built on Apr 28 2013 12:22:01
Writing library : libebml v1.3.0 + libmatroska v1.4.0
Video
ID : 1
Format : AVC
Format/Info : Advanced Video Codec
Format profile : [email protected]
Format settings, CABAC : Yes
Format settings, ReFrames : 4 frames
Codec ID : V_MPEG4/ISO/AVC
Duration : 1h 28mn
Bit rate mode : Variable
Maximum bit rate : 34.3 Mbps
Width : 1 920 pixels
Height : 1 080 pixels
Display aspect ratio : 16:9
Frame rate mode : Constant
Frame rate : 23.976 fps
Color space : YUV
Chroma subsampling : 4:2:0
Bit depth : 8 bits
Scan type : Progressive
Default : Yes
Forced : No
Audio #1
ID : 2
Format : AC-3
Format/Info : Audio Coding 3
Mode extension : CM (complete main)
Format settings, Endianness : Big
Codec ID : A_AC3
Duration : 1h 28mn
Bit rate mode : Constant
Bit rate : 192 Kbps
Channel(s) : 2 channels
Channel positions : Front: L R
Sampling rate : 48.0 KHz
Bit depth : 16 bits
Compression mode : Lossy
Stream size : 122 MiB (1%)
Title : Многоголосый закадровый (20 Century Fox)
Language : Russian
Default : Yes
Forced : No
Audio #2
ID : 3
Format : AC-3
Format/Info : Audio Coding 3
Mode extension : CM (complete main)
Format settings, Endianness : Big
Codec ID : A_AC3
Duration : 1h 28mn
Bit rate mode : Constant
Bit rate : 192 Kbps
Channel(s) : 2 channels
Channel positions : Front: L R
Sampling rate : 48.0 KHz
Bit depth : 16 bits
Compression mode : Lossy
Stream size : 122 MiB (1%)
Title : Многоголосый закадровый (1-й канал)
Language : Russian
Default : No
Forced : No
Audio #3
ID : 4
Format : AC-3
Format/Info : Audio Coding 3
Mode extension : CM (complete main)
Format settings, Endianness : Big
Codec ID : A_AC3
Duration : 1h 28mn
Bit rate mode : Constant
Bit rate : 192 Kbps
Channel(s) : 2 channels
Channel positions : Front: L R
Sampling rate : 48.0 KHz
Bit depth : 16 bits
Compression mode : Lossy
Stream size : 122 MiB (1%)
Title : Многоголосый закадровый (SomeWax)
Language : Russian
Default : No
Forced : No
Audio #4
ID : 5
Format : AC-3
Format/Info : Audio Coding 3
Mode extension : CM (complete main)
Format settings, Endianness : Big
Codec ID : A_AC3
Duration : 1h 28mn
Bit rate mode : Constant
Bit rate : 192 Kbps
Channel(s) : 2 channels
Channel positions : Front: L R
Sampling rate : 48.0 KHz
Bit depth : 16 bits
Compression mode : Lossy
Stream size : 122 MiB (1%)
Title : Многоголосый закадровый (неизвестный)
Language : Russian
Default : No
Forced : No
Audio #5
ID : 6
Format : DTS
Format/Info : Digital Theater Systems
Format profile : MA / Core
Mode : 16
Format settings, Endianness : Big
Codec ID : A_DTS
Duration : 1h 28mn
Bit rate mode : Variable
Bit rate : Unknown / 1 509 Kbps
Channel(s) : 6 channels
Channel positions : Front: L C R, Side: L R, LFE
Sampling rate : 48.0 KHz
Bit depth : 24 bits
Compression mode : Lossless / Lossy
Title : original
Language : English
Default : No
Forced : No
Text #1
ID : 7
Format : UTF-8
Codec ID : S_TEXT/UTF8
Codec ID/Info : UTF-8 Plain Text
Title : russian
Language : Russian
Default : Yes
Forced : No
Text #2
ID : 8
Format : UTF-8
Codec ID : S_TEXT/UTF8
Codec ID/Info : UTF-8 Plain Text
Title : english
Language : English
Default : No
Forced : No
Menu
00:00:00.000 : en:MAIN TITLES
00:01:21.289 : en:FIVE IN THE MORNING
00:04:49.121 : en:MR. & MRS. CUTLER
00:07:48.926 : en:A PROBLEM WITH CABIN B
00:10:30.838 : en:A TOUR OF THE FALLS
00:13:25.680 : en:A SECRET IN THE MIST
00:16:26.903 : en:ROSE'S SONG
00:20:47.621 : en:OPEN WOUNDS
00:26:39.848 : en:A DATE
00:28:22.534 : en:GEORGE'S JEALOUSY
00:31:22.172 : en:FOLLOWING ROSE
00:34:28.275 : en:WORRIED ABOUT GEORGE
00:40:42.732 : en:THE BODY
00:45:19.800 : en:TROUBLED IN CABIN B
00:51:49.315 : en:WHO KILLED WHO?
00:56:40.606 : en:THAT SONG...
00:58:36.722 : en:WHERE'S MRS. LOOMIS?
01:01:12.294 : en:WOMEN ON THE RUN
01:05:15.078 : en:DEATH IN THE TOWER
01:10:43.865 : en:LOOKING FOR LOOMIS
01:15:22.685 : en:POLLY'S PERIL
01:20:17.604 : en:INTO THE DRIFT
01:24:58.760 : en:BRINK OF DISASTER
01:27:51.892 : en:AN ANSWERED PRAYER

[22.52 GB] Скачать / Download