Новые времена / Modern Times (Чарльз Чаплин / Charles Chaplin) Sub Rus + Original Eng - Скачать


Год выпуска: 1936
Страна: США
Жанр: комедия, мелодрама, драма
Продолжительность: 1:26:52
Перевод: нет
Русские субтитры: есть
Режиссер: Чарльз Чаплин / Charles Chaplin
В ролях: Чарльз Чаплин, Полетт Годдард,Генри Бергман, Тайни Сэндфорд, Честер Конклин, Хэнк Манн, Стэнли Блистоун, Аль Эрнест Гарсиа, Ричард Александр, Сесил Рейнольдс
Описание: «Новые времена» — это эмоциональный, выдержанный в комическом ключе, отклик на перекосы машинной эпохи. Маленький Бродяга не желает быть «винтиком» в огромной мега-машине промышленного производства и так похожею на него человеческого общества. Чарли сражается с тупыми богачами, всесильными полицейскими, бездушными начальниками конвейерного производства.
Иногда он выигрывает в этих сражениях, но чаще проигрывает, в конце концов, бесстрашно идет навстречу рассвету. Хотя «Новые времена» считается последним немым фильмом Чарли Чаплина, в нем Маленький Бродяга в первый и в последний раз обрел голос.Раздача от:
Качество: BDRip
Формат: mkv
Видео кодек: H.264
Аудио кодек: AC3
Видео: MPEG4 Video (H264), 1424x1080, 10.7 Mbps, 23.98fps
Аудио: English AC3 2.0, 448 Kbps, 48kHz
Субтитры: Russian, German
Сэмпл:79Mb

оригинал, fullhd, субтитры, hd, торрент, torrent, subs, высокое качество, кино, на русском, полная версия, видео, скачать, фильм, download, бесплатно

после фильма "Новые времена" (1936) ФБР завело на Чаплина дело, состоящее из 1900 листов.
Во время съёмок его следующего фильма - «Великий диктатор» (1940) Чаплина предупреждали, что у фильма будут неприятности с цензурой. Чаплина просили отказаться от производства фильма, уверяя, что он никогда не будет показан ни в Англии, ни в США. После нападения Германии на СССР давление сверху прекратилось, но стали поступать письма с угрозами от зрителей. В некоторых из них содержались обещания, что в кинотеатры, в которых начнут показывать «Диктатора», будут кидать бомбы с удушливым газом и стрелять в экран.
После выхода «Диктатора» на экраны нью-йоркская газета «Дейли ньюс» писала, что «Чаплин тыкал в зрителей „коммунистическим пальцем“». В то же время в США "Комиссия по расследованию антиамериканской деятельности" начала расследование деятельности Чаплина.
Выпуск следующего фильма - «Месье Верду» (1947) был запрещён цензурой. Но после дополнительного монтажа цензоры всё же разрешили фильм к прокату. Демонстрация «Месье Верду» сопровождалась в Соединённых Штатах протестами. В газетах началась травля Чаплина. Кроме обвинений в принадлежности к коммунистам, добавились обвинения в том, что он не получил гражданства США.. «Католический легион» объявил бойкот фильму, кинотеатры стали отказываться от проката «Месье Верду». В газетах печатались фотографии пикетов «Католического легиона» с плакатами «Чаплин — попутчик красных!», «Вон из нашей страны чужака!», «Чаплин слишком долго загостился у нас!», «Чаплин — неблагодарный! Он прихвостень коммунистов!», «Выслать Чаплина в Россию!». Тем не менее, фильм был номинирован на получение премии Оскар в категории «Лучший сценарий».
В 1952 году Чаплин отправился в Лондон на мировую премьеру своего нового фильма - «Огни рампы», и глава ФБР Эдгар Гувер добивается от иммиграционных властей запрета на обратный въезд актёра в страну.
General
Complete name : Modern Times (1936).mkv
Format : Matroska
File size : 6.75 GiB
Duration : 1h 26mn
Overall bit rate : 11.1 Mbps
Movie name : Modern times_1080_HDReactor
Encoded date : UTC 2010-06-03 12:27:53
Writing application : mkvmerge v3.4.0 ('Rapunzel') сборка от May 15 2010 09:38:20
Writing library : libebml v0.8.0 + libmatroska v0.9.0
Video
ID : 1
Format : AVC
Format/Info : Advanced Video Codec
Format profile : [email protected]
Format settings, CABAC : Yes
Format settings, ReFrames : 3 frames
Muxing mode : Container [email protected]
Codec ID : V_MPEG4/ISO/AVC
Duration : 1h 26mn
Bit rate : 10.7 Mbps
Width : 1 424 pixels
Height : 1 080 pixels
Display aspect ratio : 4:3
Frame rate : 23.976 fps
Color space : YUV
Chroma subsampling : 4:2:0
Bit depth : 8 bits
Scan type : Progressive
Bits/(Pixel*Frame) : 0.289
Stream size : 6.34 GiB (94%)
Writing library : x264 core 80 r1376M 3feaec2
Encoding settings : cabac=1 / ref=4 / deblock=1:-3:-3 / analyse=0x3:0x113 / me=umh / subme=7 / psy=1 / psy_rd=0.9:0.1 / mixed_ref=1 / me_range=32 / chroma_me=1 / trellis=2 / 8x8dct=1 / cqm=0 / deadzone=21,11 / fast_pskip=0 / chroma_qp_offset=-6 / threads=6 / sliced_threads=0 / slices=4 / nr=0 / decimate=0 / mbaff=0 / constrained_intra=0 / bframes=7 / b_pyramid=1 / b_adapt=2 / b_bias=0 / direct=1 / wpredb=1 / wpredp=2 / keyint=250 / keyint_min=25 / scenecut=40 / rc_lookahead=0 / rc=2pass / mbtree=0 / bitrate=10667 / ratetol=1.0 / qcomp=0.60 / qpmin=10 / qpmax=51 / qpstep=4 / cplxblur=20.0 / qblur=0.5 / vbv_maxrate=40000 / vbv_bufsize=30000 / ip_ratio=1.40 / pb_ratio=1.30 / aq=1:1.00
Language : English
Audio
ID : 2
Format : AC-3
Format/Info : Audio Coding 3
Mode extension : CM (complete main)
Codec ID : A_AC3
Duration : 1h 26mn
Bit rate mode : Constant
Bit rate : 448 Kbps
Channel(s) : 2 channels
Channel positions : Front: L R
Sampling rate : 48.0 KHz
Stream size : 278 MiB (4%)
Language : English
Text #1
ID : 3
Format : UTF-8
Codec ID : S_TEXT/UTF8
Codec ID/Info : UTF-8 Plain Text
Language : Russian
Text #2
ID : 4
Format : UTF-8
Codec ID : S_TEXT/UTF8
Codec ID/Info : UTF-8 Plain Text
Language : German
Menu
00:00:00.000 : en:00:00:00.000
00:09:20.977 : en:00:09:20.977
00:20:51.834 : en:00:20:51.834
00:31:41.566 : en:00:31:41.566
00:43:26.354 : en:00:43:26.354
00:52:55.047 : en:00:52:55.047
01:04:07.927 : en:01:04:07.927
01:17:11.502 : en:01:17:11.502

[6.75 GB] Скачать / Download