Один человек лишний / Un homme de trop / Shock Troops (Коста-Гаврас / Costa-Gavras) VO (Urasiko) + Sub Rus, Fre + Original Fre - Скачать

Страна: Франция, Италия
Студия: Terra Film, Les Productions Les Artistes Associes, Sol Produzioni, Compagnia Cinematografica Montoro
Жанр: драма, исторический
Год выпуска: 1967
Продолжительность: 01:50:49
Перевод: Одноголосый закадровый -Urasiko
Перевод 2: Субтитры на непереведенные места (sovsem-neduhoven)
Субтитры: русские, французские (полные + на немецкую речь)
Оригинальная аудиодорожка: французский
Режиссер: Коста-Гаврас / Costa-Gavras
В ролях: Шарль Ванель, Бруно Кремер, Жан-Клод Бриали, Мишель Пикколи, Жерар Блен, Клод Брассёр, Жак Перрен, Франсуа Перье, Клод Броссе, Пьер Клементе, Мишель Кретон, Паоло Фратини, Джули Дассен, Нино Сегурини, Рене Алон, Эдмон Ардиссон, Мишель Бардоллет, Мишель Карлес, Моник Шометт, Андре Далибер, Жерар Дарьё, Марио Давид, Мишель Дюпле, Жан Этчеверри, Филипп Форке, Морис Гаррель, Жан-Франсуа Гобби, Мишель Гонзалес, Мед Хондо, Билли Кирнс, Жан-Луи Ле Гофф, Рене Лефевр, Ги Мэресс, Роджер Мэрион, Мишель Модо, Франсуа Пави, Роджер Пера, Марк Порель, Патрик Прежан, Сади Реббо, Мони Рех, Альбер Реми, Жерар Сарафьян, Серж Совион, Жаклин Сто, Доминик Вирио
Описание: 1943 год. Группа французского Сопротивления получает из Лондона приказ освободить двенадцать человек, приговоренных немецкими оккупантами к расстрелу. Но освобожденных оказалось тринадцать. Один человек - лишний.
Доп. информация: В найденный в сети рип, содержащий французский оригинал и французские субтитры и сделанный с этого исходника -filmz.pro/link/55360675, добавлены синхронизированныеНордеромрусская аудиодорога из раздачи -filmz.pro/link/55332483и русские субтитры на непереведенные места.
Тайминги неозвученных мест:00:02:54 - 00:03:03, 00:24:31 - 00:27:23, 00:32:12 - 00:33:05, 00:39:06 - 00:40:27, 00:46:20 - 00:46:27, 00:48:46 - 00:49:49, 00:50:29 - 00:51:23, 00:51:50 - 00:52:01, 00:53:17 - 00:53:39, 00:57:45 - 00:58:19, 01:00:30 - 01:04:08, 01:06:44 - 01:07:01, 01:09:13 - 01:09:55, 01:10:15 - 01:13:25, 01:15:46 - 01:15:56, 01:17:36 - 01:18:41, 01:22:29 - 01:22:41, 01:25:43 - 01:25:53, 01:36:54 - 01:37:04, 01:37:45 - 01:37:48
Сэмпл:http://multi-up.com/1141753
Тип релиза: BDRip 720p
Контейнер: MKV
Видео: 11000 Кбит/сек, PAL 1280*536 (2,40:1), в 25,000 кадров/сек, AVC
Аудио: Русский, 192 Кбит/сек, 48,0 КГц, 2 канала, AC-3
Аудио 2: Французский, 183 Кбит/сек, 48,0 КГц, 2 канала, AAC
Формат субтитров: UTF

бесплатно, полная версия, высокое качество, кино, subs, видео, fullhd, download, торрент, субтитры, на русском, оригинал, фильм, скачать, hd, torrent

 Общее
Уникальный идентификатор : 216349703625346330136128206598090550168 (0xA2C36FF0BD2FF8399B2D42006A6C6B98)
Полное имя : O:\MONAR\Художественные фильмы\Зарубежное кино\Один человек лишний (1967).mkv
Формат : Matroska
Версия формата : Version 4 / Version 2
Размер файла : 8,81 Гбайт
Продолжительность : 1 ч. 50 м.
Общий поток : 11,4 Мбит/сек
Название фильма : Un homme de trop (1967)
Дата кодирования : UTC 2017-02-20 20:08:51
Программа кодирования : mkvmerge v9.6.0 ('Slave To Your Mind') 64bit
Библиотека кодирования : libebml v1.3.4 + libmatroska v1.4.5
Видео
Идентификатор : 1
Формат : AVC
Формат/Информация : Advanced Video Codec
Профиль формата : [email protected]
Параметр CABAC формата : Да
Параметр ReFrames формата : 12 кадров
Идентификатор кодека : V_MPEG4/ISO/AVC
Продолжительность : 1 ч. 50 м.
Битрейт : 11,0 Мбит/сек
Ширина : 1280 пикселей
Высота : 536 пикселей
Соотношение сторон : 2,40:1
Режим частоты кадров : Постоянный
Частота кадров : 25,000 кадров/сек
Цветовое пространство : YUV
Субдискретизация насыщенности : 4:2:0
Битовая глубина : 8 бит
Тип развёртки : Прогрессивная
Бит/(Пиксели*Кадры) : 0.641
Размер потока : 8,52 Гбайт (97%)
Библиотека кодирования : x264 core 148 r2744 b97ae06
Настройки программы : cabac=1 / ref=12 / deblock=1:-3:-3 / analyse=0x3:0x133 / me=umh / subme=10 / psy=1 / psy_rd=1.10:0.00 / mixed_ref=1 / me_range=24 / chroma_me=1 / trellis=2 / 8x8dct=1 / cqm=0 / deadzone=21,11 / fast_pskip=0 / chroma_qp_offset=-2 / threads=6 / lookahead_threads=1 / sliced_threads=0 / nr=0 / decimate=0 / interlaced=0 / bluray_compat=0 / constrained_intra=0 / bframes=11 / b_pyramid=2 / b_adapt=2 / b_bias=0 / direct=3 / weightb=1 / open_gop=0 / weightp=2 / keyint=250 / keyint_min=25 / scenecut=40 / intra_refresh=0 / rc=2pass / mbtree=0 / bitrate=11000 / ratetol=1.0 / qcomp=0.60 / qpmin=0 / qpmax=69 / qpstep=4 / cplxblur=20.0 / qblur=0.5 / ip_ratio=1.30 / pb_ratio=1.20 / aq=3:0.65
Язык : French
Default : Да
Forced : Нет
Аудио #1
Идентификатор : 2
Формат : AC-3
Формат/Информация : Audio Coding 3
Расширение режима : CM (complete main)
Параметр Endianness формата : Big
Идентификатор кодека : A_AC3
Продолжительность : 1 ч. 50 м.
Вид битрейта : Постоянный
Битрейт : 192 Кбит/сек
Каналы : 2 канала
Расположение каналов : Front: L R
Частота : 48,0 КГц
Частота кадров : 31,250 кадров/сек (1536 spf)
Битовая глубина : 16 бит
Метод сжатия : С потерями
Размер потока : 152 Мбайт (2%)
Заголовок : VO
Язык : Russian
Default : Да
Forced : Нет
Аудио #2
Идентификатор : 3
Формат : AAC
Формат/Информация : Advanced Audio Codec
Профиль формата : LC
Идентификатор кодека : A_AAC
Продолжительность : 1 ч. 50 м.
Битрейт : 183 Кбит/сек
Каналы : 2 канала
Расположение каналов : Front: L R
Частота : 48,0 КГц
Частота кадров : 46,875 кадров/сек (1024 spf)
Метод сжатия : С потерями
Задержка видео : 9 мс.
Размер потока : 145 Мбайт (2%)
Заголовок : original
Язык : French
Default : Нет
Forced : Нет
Текст #1
Идентификатор : 4
Формат : UTF-8
Идентификатор кодека : S_TEXT/UTF8
Идентификатор кодека/Информация : UTF-8 Plain Text
Продолжительность : 1 ч. 34 м.
Битрейт : 29 бит/сек
Count of elements : 387
Размер потока : 20,5 Кбайт (0%)
Заголовок : srt
Язык : Russian
Default : Да
Forced : Нет
Текст #2
Идентификатор : 5
Формат : UTF-8
Идентификатор кодека : S_TEXT/UTF8
Идентификатор кодека/Информация : UTF-8 Plain Text
Продолжительность : 1 ч. 50 м.
Битрейт : 68 бит/сек
Count of elements : 1924
Размер потока : 55,6 Кбайт (0%)
Заголовок : srt
Язык : French
Default : Нет
Forced : Нет
Текст #3
Идентификатор : 6
Формат : UTF-8
Идентификатор кодека : S_TEXT/UTF8
Идентификатор кодека/Информация : UTF-8 Plain Text
Продолжительность : 1 ч. 34 м.
Битрейт : 0 бит/сек
Count of elements : 16
Размер потока : 358 байт (0%)
Заголовок : srt
Язык : French
Default : Нет
Forced : Нет
Меню
00:00:00.000 : en:00:00:00.000
00:11:09.480 : en:00:11:09.480
00:16:52.280 : en:00:16:52.280
00:24:32.200 : en:00:24:32.200
00:34:48.280 : en:00:34:48.280
00:44:35.480 : en:00:44:35.480
00:53:10.200 : en:00:53:10.200
01:07:01.240 : en:01:07:01.240
01:14:43.240 : en:01:14:43.240
01:22:45.680 : en:01:22:45.680
01:37:08.120 : en:01:37:08.120
01:46:50.800 : en:01:46:50.800

[8.81 GB] Скачать / Download