Охотник на оленей / The Deer Hunter (Майкл Чимино / Michael Cimino) MVO + Sub Rus, Eng + Original Eng + Comm - Скачать

Год выпуска: 1978
Страна: США
Жанр: Военный, драма
Продолжительность: 03:03:31
Перевод:Профессиональный (многоголосый, закадровый)
Русские субтитры: есть

Режиссер:Майкл Чимино / Michael Cimino

В ролях:Роберт ДеНиро , Джон Казале, Джон Сэвадж, Кристофер Уокен, Мэрил Стрип, Джордж Дзундза и др.

Описание:Фильм о четырех американцах русского происхождения, их жизни до, во время и после войны во Вьетнаме.
Картина наполнена волшебным очарованием, печалью, трагизмом и потрясает истинной человечностью. Один из тех фильмов, о которых единодушно говорят как о самом любимом.

|IMDB|: (согласовано)

Качество: HD DVD
Формат: HVDVD
Видео: VC-1 at 16.3 Mbps, 1920 x 1080 (1.778) at 23.976 fps

Аудио#1: E-AC-3 at 1 536 Kbps, 6 channels, 48.0 KHz (Английский)
Аудио#2: AC-3 at 384 Kbps, 6 channels, 48.0 KHz (Русский)
Аудио#3: E-AC-3 at 192 Kbps, 2 channels, 48.0 KHz (Комментарии)

Субтитры:Русские, французские, английские

Доп. информация:HD-DVD диск. Файлы .evo собраны Scenarist ACA, разобраны EvoDemux. Испанские дорожки звука и субтитры заменены на русские. Картинки в меню заменены. Допы не переведены.
Меню есть. На английском языке. Можно выбрать сцену, язык, дополнительные материалы. Скрин меню сделать не удалось.

Доп. материалы:Вырезанные сцены, театральный трейлер, комментарии.

кино, fullhd, torrent, фильм, оригинал, hd, на русском, торрент, полная версия, видео, бесплатно, субтитры, subs, высокое качество, download, скачать

Код:
General
Complete name : C:\Deer Hunter\HVDVD_TS\FEATURE_1.EVO
Format : MPEG-PS
File size : 12.9 GiB
Duration : 1h 36mn
Overall bit rate : 19.1 Mbps
Video
ID : 85 (0x55)
Format : VC-1
Format profile : [email protected]
Duration : 1h 36mn
Bit rate : 16.3 Mbps
Width : 1 920 pixels
Height : 1 080 pixels
Display aspect ratio : 16:9
Frame rate : 23.976 fps
Resolution : 8 bits
Colorimetry : 4:2:0
Scan type : Progressive
Scan order : 2:3 Pulldown
Bits/(Pixel*Frame) : 0.327
Stream size : 11.0 GiB (85%)
Audio #1
ID : 192 (0xC0)
Format : E-AC-3
Format/Info : Audio Coding 3
Duration : 1h 36mn
Bit rate mode : Constant
Bit rate : 1 536 Kbps
Channel(s) : 6 channels
Channel positions : Front: L C R, Surround: L R, LFE
Sampling rate : 48.0 KHz
Stream size : 1.04 GiB (8%)
Audio #2
ID : 193 (0xC1)
Format : AC-3
Format/Info : Audio Coding 3
Duration : 1h 36mn
Bit rate mode : Constant
Bit rate : 384 Kbps
Channel(s) : 6 channels
Channel positions : Front: L C R, Surround: L R, LFE
Sampling rate : 48.0 KHz
Stream size : 265 MiB (2%)
Audio #3
ID : 194 (0xC2)
Format : E-AC-3
Format/Info : Audio Coding 3
Duration : 1h 36mn
Bit rate mode : Constant
Bit rate : 192 Kbps
Channel(s) : 2 channels
Channel positions : L R
Sampling rate : 48.0 KHz
Stream size : 133 MiB (1%)

[26.01 GB] Скачать / Download