Окно во двор / Rear Window (Альфред Хичкок / Alfred Hitchcock) DVO + Sub Rus + Original Eng - Скачать

Страна: США
Студия: Альфред Хичкок / Alfred Hitchcock
Жанр: триллер, детектив
Год выпуска: 1954
Продолжительность: 01:52:26

Перевод: Профессиональный (двухголосый закадровый)
Субтитры: русские, английские
Оригинальная аудиодорожка: английский

Режиссер: Альфред Хичкок / Alfred Hitchcock

В ролях: Джеймс Стюарт (L. B. Jefferies), Грэйс Келли (Lisa Carol Fremont), Уенделл Кори (Det. Lt. Thomas J. Doyle), Тельма Риттер (Stella), Рэймонд Бёрр (Lars Thorwald), Джудит Эвелин (Miss Lonelyheart), Росс Багдасарян (Songwriter), Джорджин Дарси (Miss Torso), Сара Бернер (Wife living above Thorwalds), Фрэнк Кэди (Husband living above Thorwalds), Джесслин Факс (Sculpting neighbor with hearing aid), Рэнд Харпер (Newlywed man)

Описание: Прикованный из-за сломанной ноги к инвалидному креслу фоторепортер от скуки начинает наблюдать за соседями, живущими в его же доме, чьи окна выходят во внутренний двор. Действие происходит в Гринвич Вилледж. Постоянные наблюдения наталкивают его на подозрение, что один из соседей убил свою жену…

Тип релиза: BDRip 1080p
Контейнер: MKV
Видео: x264 ~ 20000 kbps 1788x1080p 23.976 fps
Аудио 1: Russian DTS 448 Kbps 2.0 ch. 48 kHz
Аудио 2: English DTS 1510 kbps 2.0 ch. 48 kHz
Формат субтитров: softsub (SRT)

[url=http:// СПАМ

кино, бесплатно, на русском, торрент, fullhd, download, subs, видео, субтитры, фильм, torrent, скачать, полная версия, hd, высокое качество, оригинал

General
Complete name : Rear.Window.1954.BDRip.1080p.x264-boofer.mkv
Format : Matroska
Format version : Version 2
File size : 17.2 GiB
Duration : 1h 52mn
Overall bit rate : 22.0 Mbps
Movie name : = Rear Window = 1954 = boofer
Encoded date : UTC 2013-01-18 09:48:44
Writing application : mkvmerge v5.6.0 ('Kenya Kane') built on Jun 29 2012 15:01:44
Writing library : libebml v1.2.3 libmatroska v1.3.0
Video
ID : 1
Format : AVC
Format/Info : Advanced Video Codec
Format profile : [email protected]
Format settings, CABAC : Yes
Format settings, ReFrames : 5 frames
Codec ID : V_MPEG4/ISO/AVC
Duration : 1h 52mn
Bit rate : 20.0 Mbps
Width : 1 788 pixels
Height : 1 080 pixels
Display aspect ratio : 1.656
Frame rate : 23.976 fps
Color space : YUV
Chroma subsampling : 4:2:0
Bit depth : 8 bits
Scan type : Progressive
Bits/(Pixel*Frame) : 0.432
Stream size : 15.4 GiB (89%)
Writing library : x264 core 125 r2200 999b753
Encoding settings : cabac=1 / ref=5 / deblock=1:-2:-1 / analyse=0x3:0x113 / me=umh / subme=10 / psy=1 / psy_rd=1.00:0.00 / mixed_ref=1 / me_range=32 / chroma_me=1 / trellis=2 / 8x8dct=1 / cqm=0 / deadzone=21,11 / fast_pskip=0 / chroma_qp_offset=-2 / threads=12 / lookahead_threads=2 / sliced_threads=0 / nr=0 / decimate=1 / interlaced=0 / bluray_compat=0 / constrained_intra=0 / bframes=9 / b_pyramid=2 / b_adapt=2 / b_bias=0 / direct=3 / weightb=1 / open_gop=0 / weightp=2 / keyint=250 / keyint_min=24 / scenecut=40 / intra_refresh=0 / rc_lookahead=60 / rc=2pass / mbtree=1 / bitrate=20000 / ratetol=1.0 / qcomp=0.70 / qpmin=0 / qpmax=69 / qpstep=4 / cplxblur=20.0 / qblur=0.5 / vbv_maxrate=50000 / vbv_bufsize=50000 / nal_hrd=none / ip_ratio=1.40 / aq=1:1.00
Language : English
Default : Yes
Forced : No
Audio #1
ID : 2
Format : DTS
Format/Info : Digital Theater Systems
Codec ID : A_DTS
Duration : 1h 52mn
Bit rate mode : Constant
Bit rate : 448 Kbps
Channel(s) : 2 channels
Channel positions : Front: L R
Sampling rate : 48.0 KHz
Bit depth : 24 bits
Compression mode : Lossy
Stream size : 360 MiB (2%)
Title : DTS 448 kbps 2.0 ch.
Language : Russian
Default : Yes
Forced : No
Audio #2
ID : 3
Format : DTS
Format/Info : Digital Theater Systems
Codec ID : A_DTS
Duration : 1h 52mn
Bit rate mode : Constant
Bit rate : 1 510 Kbps
Channel(s) : 2 channels
Channel positions : Front: L R
Sampling rate : 48.0 KHz
Bit depth : 24 bits
Compression mode : Lossy
Stream size : 1.19 GiB (7%)
Title : DTS 1510 kbps 2.0 ch.
Language : English
Default : No
Forced : No
Text #1
ID : 4
Format : UTF-8
Codec ID : S_TEXT/UTF8
Codec ID/Info : UTF-8 Plain Text
Language : Russian
Default : No
Forced : No
Text #2
ID : 5
Format : UTF-8
Codec ID : S_TEXT/UTF8
Codec ID/Info : UTF-8 Plain Text
Language : English
Default : No
Forced : No
x264 [info]: frame I:989 Avg QP:17.83 size:249926
x264 [info]: frame P:29724 Avg QP:18.55 size:142449
x264 [info]: frame B:131041 Avg QP:20.28 size: 94516

[17.25 GB] Скачать / Download