Он бежал в никуда / Он бежал всю дорогу / He Ran All the Way (Джон Берри / John Berry) VO + Sub Rus + Original Eng - Скачать

Страна: США
Жанр: фильм-нуар, триллер, криминальная драма
Год выпуска: 1951
Продолжительность: 01:17:51

Перевод: Одноголосый закадровый Stalk

Субтитры: русские
Оригинальная аудиодорожка: английский

Режиссер: Джон Берри / John Berry

В ролях: Джон Гарфилд, Шелли Уинтерс, Уоллес Форд, Селена Ройл, Глэдис Джордж, Норман Ллойд, Роберт Хайатт, Клэнси Купер, Вики Рааф, Кит Хизерингтон

Описание:
Мелкий воришка по имени Ник Роби вместе со своим сообщником и единственным другом Элом Молином организуют ограбление фонда заработной платы, однако ситуация выходит из-под контроля... От преследования полиции Ник укрывается в квартире случайно встреченной старой девы Пегги Доббс.

Сэмпл:Скачать

Тип релиза: BDRip 720p
Контейнер: MKV

Видео: 984x720 (4:3); 8000 Kbps; 23.976 fps;
Аудио 1: Russian; AC3; 48.0 KHz; 2ch; 192 Kbps
Аудио 2: English; FLAC; 48.0 KHz; 2ch; 187 Kbps

скачать, субтитры, кино, высокое качество, фильм, торрент, оригинал, бесплатно, subs, полная версия, fullhd, download, видео, hd, на русском, torrent

Format : Matroska
Format version : Version 4 / Version 2
File size : 4.55 GiB
Duration : 1 h 17 min
Overall bit rate mode : Variable
Overall bit rate : 8 376 kb/s
Encoded date : UTC 2016-09-21 07:57:39
Writing application : mkvmerge v8.3.0 ('Over the Horizon') 64bit
Writing library : libebml v1.3.1 + libmatroska v1.4.2
Attachments : poster.jpg
Video
ID : 1
Format : AVC
Format/Info : Advanced Video Codec
Format profile : [email protected]
Format settings : CABAC / 11 Ref Frames
Format settings, CABAC : Yes
Format settings, ReFrames : 11 frames
Codec ID : V_MPEG4/ISO/AVC
Duration : 1 h 17 min
Bit rate : 8 000 kb/s
Width : 984 pixels
Height : 720 pixels
Display aspect ratio : 4:3
Frame rate mode : Constant
Frame rate : 23.976 (24000/1001) FPS
Color space : YUV
Chroma subsampling : 4:2:0
Bit depth : 8 bits
Scan type : Progressive
Bits/(Pixel*Frame) : 0.471
Stream size : 4.35 GiB (95%)
Writing library : x264 core 148 r2638 7599210
Encoding settings : cabac=1 / ref=11 / deblock=1:-3:-3 / analyse=0x3:0x133 / me=umh / subme=10 / psy=1 / psy_rd=1.00:0.50 / mixed_ref=1 / me_range=32 / chroma_me=1 / trellis=2 / 8x8dct=1 / cqm=0 / deadzone=21,11 / fast_pskip=0 / chroma_qp_offset=-4 / threads=6 / lookahead_threads=1 / sliced_threads=0 / nr=0 / decimate=0 / interlaced=0 / bluray_compat=0 / constrained_intra=0 / bframes=10 / b_pyramid=2 / b_adapt=2 / b_bias=0 / direct=3 / weightb=1 / open_gop=0 / weightp=2 / keyint=240 / keyint_min=23 / scenecut=40 / intra_refresh=0 / rc_lookahead=60 / rc=2pass / mbtree=0 / bitrate=8000 / ratetol=1.0 / qcomp=0.65 / qpmin=0 / qpmax=69 / qpstep=4 / cplxblur=20.0 / qblur=0.5 / vbv_maxrate=62500 / vbv_bufsize=78125 / nal_hrd=none / filler=0 / ip_ratio=1.40 / pb_ratio=1.30 / aq=1:1.00
Default : Yes
Forced : No
Audio #1
ID : 2
Format : AC-3
Format/Info : Audio Coding 3
Codec ID : A_AC3
Duration : 1 h 17 min
Bit rate mode : Constant
Bit rate : 192 kb/s
Channel(s) : 2 channels
Channel positions : Front: L R
Sampling rate : 48.0 kHz
Frame rate : 31.250 FPS (1536 SPF)
Bit depth : 16 bits
Compression mode : Lossy
Stream size : 107 MiB (2%)
Title : VO Stalk
Language : Russian
Service kind : Complete Main
Default : Yes
Forced : No
Audio #2
ID : 3
Format : FLAC
Format/Info : Free Lossless Audio Codec
Codec ID : A_FLAC
Duration : 1 h 17 min
Bit rate mode : Variable
Bit rate : 187 kb/s
Channel(s) : 2 channels
Channel positions : Front: L R
Sampling rate : 48.0 kHz
Frame rate : 11.719 FPS (4096 SPF)
Bit depth : 16 bits
Stream size : 104 MiB (2%)
Writing library : libFLAC 1.3.1 (UTC 2014-11-25)
Language : English
Default : No
Forced : No
Text
ID : 4
Format : UTF-8
Codec ID : S_TEXT/UTF8
Codec ID/Info : UTF-8 Plain Text
Duration : 1 h 16 min
Bit rate : 81 b/s
Count of elements : 903
Stream size : 45.4 KiB (0%)
Language : Russian
Default : No
Forced : No

[4.55 GB] Скачать / Download