Оставайся собой / Такая как ты есть / Stay As You Are / Cosi come sei / Così come sei (Альберто Латтуада / Alberto Lattuada) MVO + DVO + Sub Eng + Original Ita - Скачать

Страна: Италия, Испания
Жанр: драма, мелодрама
Год выпуска: 1978
Продолжительность: 01:44:48

Перевод 1: Профессиональный (многоголосый, закадровый) Петербург Пятый канал
Перевод 2: Профессиональный (двухголосый закадровый) НТВ+

Субтитры: английские
Оригинальная аудиодорожка: итальянский

Режиссер: Альберто Латтуада / Alberto Lattuada

В ролях: Марчелло Мастроянни, Настасья Кински, Франсиско Рабаль, Моника Рэндалл, Аня Пьерони, Барбара Де Росси, Хосе Мария Каффарель, Джулиана Каландра, Мария Пиа Аттанасио, Раймондо Пенне, Клаудио Алиотти, Массимо Бонетти, Марио Чекки, Адриана Фалько, Родольфо Биготти, Альберто Латтуада

Описание:
Джулио Маренго сегодня не так молод и проворен, как прежде, его любовные победы остались в прошлом, но, оказавшись в городе своей юности, он моментально знакомится с хорошенькой студенткой. Вот только от полноценного романа его удерживает брошенная другом фраза - Франческа дочь давней подруги Джулио, а кто ее отец, осталось тайной. Он долго пытается высяснить, не является ли он сам ее отцом, а смущенная Франческа никак не может понять характер своих странных отношений с этим стареющим мужчиной...

Сэмпл:Скачать

Тип релиза: BDRemux 1080p
Контейнер: MKV

Видео: MPEG-4 AVC Video; 20000 kbps; 1080p; 23.976 fps; 16:9; High Profile 4.1
Аудио 1: Russian; AC3; 48.0 KHz; 2ch; 192 Kbps MVO
Аудио 2: Russian; AC3; 48.0 KHz; 2ch; 192 Kbps DVO
Аудио 3: Italian; FLAC; 48.0 KHz; 2ch; 255 Kbps

subs, скачать, оригинал, видео, на русском, торрент, высокое качество, бесплатно, полная версия, download, фильм, torrent, субтитры, hd, fullhd, кино

Format : Matroska
Format version : Version 4 / Version 2
File size : 15.1 GiB
Duration : 1h 44mn
Overall bit rate mode : Variable
Overall bit rate : 20.6 Mbps
Encoded date : UTC 2016-07-14 18:41:33
Writing application : mkvmerge v8.3.0 ('Over the Horizon') 64bit
Writing library : libebml v1.3.1 + libmatroska v1.4.2
Attachments : poster.jpg
Video
ID : 1
Format : AVC
Format/Info : Advanced Video Codec
Format profile : [email protected]
Format settings, CABAC : Yes
Format settings, ReFrames : 4 frames
Format settings, GOP : M=3, N=23
Codec ID : V_MPEG4/ISO/AVC
Duration : 1h 44mn
Bit rate mode : Variable
Bit rate : 20.0 Mbps
Maximum bit rate : 33.0 Mbps
Width : 1 920 pixels
Height : 1 080 pixels
Display aspect ratio : 16:9
Frame rate mode : Constant
Frame rate : 23.976 (24000/1001) fps
Standard : NTSC
Color space : YUV
Chroma subsampling : 4:2:0
Bit depth : 8 bits
Scan type : Progressive
Bits/(Pixel*Frame) : 0.402
Stream size : 14.6 GiB (97%)
Default : Yes
Forced : No
Color range : Limited
Color primaries : BT.709
Transfer characteristics : BT.709
Matrix coefficients : BT.709
Audio #1
ID : 2
Format : AC-3
Format/Info : Audio Coding 3
Mode extension : CM (complete main)
Format settings, Endianness : Big
Codec ID : A_AC3
Duration : 1h 44mn
Bit rate mode : Constant
Bit rate : 192 Kbps
Channel(s) : 2 channels
Channel positions : Front: L R
Sampling rate : 48.0 KHz
Frame rate : 31.250 fps (1536 spf)
Compression mode : Lossy
Delay relative to video : -83ms
Stream size : 144 MiB (1%)
Title : MVO 5 Канал
Language : Russian
Default : Yes
Forced : No
Audio #2
ID : 3
Format : AC-3
Format/Info : Audio Coding 3
Mode extension : CM (complete main)
Format settings, Endianness : Big
Codec ID : A_AC3
Duration : 1h 44mn
Bit rate mode : Constant
Bit rate : 192 Kbps
Channel(s) : 2 channels
Channel positions : Front: L R
Sampling rate : 48.0 KHz
Frame rate : 31.250 fps (1536 spf)
Compression mode : Lossy
Delay relative to video : -83ms
Stream size : 144 MiB (1%)
Title : DVO НТВ+
Language : Russian
Default : No
Forced : No
Audio #3
ID : 4
Format : FLAC
Format/Info : Free Lossless Audio Codec
Codec ID : A_FLAC
Duration : 1h 44mn
Bit rate mode : Variable
Bit rate : 255 Kbps
Channel(s) : 2 channels
Channel positions : Front: L R
Sampling rate : 48.0 KHz
Frame rate : 11.719 fps (4096 spf)
Bit depth : 16 bits
Delay relative to video : -83ms
Stream size : 191 MiB (1%)
Writing library : libFLAC 1.2.1 (UTC 2007-09-17)
Language : Italian
Default : No
Forced : No
Text
ID : 5
Format : UTF-8
Codec ID : S_TEXT/UTF8
Codec ID/Info : UTF-8 Plain Text
Duration : 1h 38mn
Bit rate : 44 bps
Count of elements : 911
Stream size : 32.0 KiB (0%)
Language : English
Default : No
Forced : No

[15.08 GB] Скачать / Download