Письмо трем женам / A Letter to Three Wives (Джозеф Лео Манкевич / Joseph Leo Mankiewicz) MVO + AVO (Гаврилов) + Sub Eng + Original Eng - Скачать

Страна: США
Жанр: драма, мелодрама
Год выпуска: 1949
Продолжительность: 01:43:09
Перевод: Профессиональный (многоголосый закадровый) | Видеобаза
Перевод: Авторский (одноголосый закадровый) | А.Гаврилов
Субтитры: английские
Оригинальная аудиодорожка: английский

Режиссер: Джозеф Лео Манкевич / Joseph Leo Mankiewicz
В ролях: Джинн Крейн, Линда Дарнелл, Энн Сотерн, Кирк Дуглас, Пол Дуглас, Барбара Лоуренс (I), Джеффри Линн, Конни Гилкрист, Флоренс Бейтс, Хобарт Кэвано
Описание: Три женщины, находящиеся вдали от города получают письмо от общей подруги, адресованное сразу всем трем. В нем Эдди Росс сообщает, что она сбежала с мужем одной из них, но не говорит, с которым. Благополучные женщины начинают мучиться сомнениями, вспоминать заново свой брак и гадать, какой же из них изменил супруг.
IMDb||КиноПоиск

Тип релиза: BDRip 720p [DON]
Контейнер: MKV
Видео: H.264/AVC, 960x720 at 23.976 fps, ~8484 kbps
Аудио#1: Russian: 48 kHz, AC3, 2.0 ch, 192 kbps |Многоголосый закадровый, Видеобаза|
Аудио#2: Russian: 48 kHz, AC3, 2.0 ch, 192 kbps |Авторский одноголосый закадровый, А.Гаврилов|
Аудио#3: English: 48 kHz, AC3 2.0, 224 kbps
Аудио#4: English: 48 kHz, AC3 1.0, 192 kbps |Commentary with Kenneth Geist, Cheryl Lower and Christopher Mankiewicz|
Формат субтитров: softsub (SRT)
Сэмпл
MediaInfo
Complete name : O:\Рутрекер\Письмо трем женам\A Letter to Three Wives.1949.720p-DON. rutracker.mkv
Format : Matroska
Format version : Version 2
File size : 6.69 GiB
Duration : 1h 43mn
Overall bit rate : 9 287 Kbps
Movie name : Release for RuTracker
Encoded date : UTC 2013-09-29 17:12:25
Writing application : mkvmerge v5.0.1 ('Es ist Sommer') built on Nov 6 2011 16:23:40
Writing library : libebml v1.2.2 + libmatroska v1.3.0
Video
ID : 1
Format : AVC
Format/Info : Advanced Video Codec
Format profile : [email protected]
Format settings, CABAC : Yes
Format settings, ReFrames : 12 frames
Codec ID : V_MPEG4/ISO/AVC
Duration : 1h 43mn
Bit rate : 8 302 Kbps
Width : 960 pixels
Height : 720 pixels
Display aspect ratio : 4:3
Frame rate : 23.976 fps
Color space : YUV
Chroma subsampling : 4:2:0
Bit depth : 8 bits
Scan type : Progressive
Bits/(Pixel*Frame) : 0.501
Stream size : 5.98 GiB (89%)
Title : A Letter to Three Wives.1949.720p-DON. rutracker
Writing library : x264 core 129 r2245 bc13772
Encoding settings : cabac=1 / ref=12 / deblock=1:-3:-3 / analyse=0x3:0x133 / me=umh / subme=10 / psy=1 / psy_rd=1.00:0.02 / mixed_ref=1 / me_range=32 / chroma_me=1 / trellis=2 / 8x8dct=1 / cqm=0 / deadzone=21,11 / fast_pskip=0 / chroma_qp_offset=-3 / threads=3 / lookahead_threads=1 / sliced_threads=0 / nr=0 / decimate=0 / interlaced=0 / bluray_compat=0 / constrained_intra=0 / bframes=7 / b_pyramid=2 / b_adapt=2 / b_bias=0 / direct=3 / weightb=1 / open_gop=0 / weightp=2 / keyint=250 / keyint_min=23 / scenecut=40 / intra_refresh=0 / rc=crf / mbtree=0 / crf=16.4 / qcomp=0.70 / qpmin=0 / qpmax=69 / qpstep=4 / ip_ratio=1.30 / pb_ratio=1.20 / aq=1:0.85
Language : English
Default : Yes
Forced : No
Audio #1
ID : 2
Format : AC-3
Format/Info : Audio Coding 3
Mode extension : CM (complete main)
Codec ID : A_AC3
Duration : 1h 43mn
Bit rate mode : Constant
Bit rate : 192 Kbps
Channel(s) : 2 channels
Channel positions : Front: L R
Sampling rate : 48.0 KHz
Bit depth : 16 bits
Compression mode : Lossy
Stream size : 142 MiB (2%)
Title : mvo
Language : Russian
Default : Yes
Forced : No
Audio #2
ID : 3
Format : AC-3
Format/Info : Audio Coding 3
Mode extension : CM (complete main)
Codec ID : A_AC3
Duration : 1h 43mn
Bit rate mode : Constant
Bit rate : 192 Kbps
Channel(s) : 2 channels
Channel positions : Front: L R
Sampling rate : 48.0 KHz
Bit depth : 16 bits
Compression mode : Lossy
Stream size : 142 MiB (2%)
Title : avo
Language : Russian
Default : No
Forced : No
Audio #3
ID : 4
Format : AC-3
Format/Info : Audio Coding 3
Mode extension : CM (complete main)
Codec ID : A_AC3
Duration : 1h 43mn
Bit rate mode : Constant
Bit rate : 224 Kbps
Channel(s) : 2 channels
Channel positions : Front: L R
Sampling rate : 48.0 KHz
Bit depth : 16 bits
Compression mode : Lossy
Stream size : 165 MiB (2%)
Language : English
Default : No
Forced : No
Audio #4
ID : 5
Format : AC-3
Format/Info : Audio Coding 3
Mode extension : CM (complete main)
Codec ID : A_AC3
Duration : 1h 43mn
Bit rate mode : Constant
Bit rate : 192 Kbps
Channel(s) : 1 channel
Channel positions : Front: C
Sampling rate : 48.0 KHz
Bit depth : 16 bits
Compression mode : Lossy
Stream size : 142 MiB (2%)
Title : Commentary
Language : English
Default : No
Forced : No
Text #1
ID : 6
Format : UTF-8
Codec ID : S_TEXT/UTF8
Codec ID/Info : UTF-8 Plain Text
Language : English
Default : No
Forced : No
Text #2
ID : 7
Format : UTF-8
Codec ID : S_TEXT/UTF8
Codec ID/Info : UTF-8 Plain Text
Title : SDH
Language : English
Default : No
Forced : No
Menu
00:00:00.000 : :00:00:00.000
00:01:14.908 : :00:01:14.908
00:04:56.379 : :00:04:56.379
00:07:16.019 : :00:07:16.019
00:09:21.478 : :00:09:21.478
00:12:48.935 : :00:12:48.935
00:23:32.828 : :00:23:32.828
00:28:43.931 : :00:28:43.931
00:31:50.367 : :00:31:50.367
00:34:01.873 : :00:34:01.873
00:47:32.975 : :00:47:32.975
00:54:13.375 : :00:54:13.375
00:59:20.891 : :00:59:20.891
01:15:39.076 : :01:15:39.076
01:21:38.102 : :01:21:38.102
01:28:49.533 : :01:28:49.533
01:36:02.131 : :01:36:02.131
01:39:45.688 : :01:39:45.688

субтитры, скачать, fullhd, hd, оригинал, torrent, бесплатно, торрент, download, кино, видео, фильм, полная версия, высокое качество, subs, на русском

x264 [info]: frame I:863 Avg QP:16.53 size:103088
x264 [info]: frame P:27722 Avg QP:17.68 size: 63428
x264 [info]: frame B:119803 Avg QP:19.00 size: 39368
x264 [info]: consecutive B-frames: 0.8% 0.5% 1.8% 15.1% 15.7% 57.5% 5.6% 3.1%

[6.69 GB] Скачать / Download