Представитель закона / Блюститель закона / Законник / Lawman (Майкл Уиннер / Michael Winner) DVO (НТВ+) + MVO (Петербург 5 канал) + Sub Eng + Original Eng - Скачать

Страна: США
Студия: Scimitar Films
Жанр: вестерн
Год выпуска: 1971
Продолжительность: 01:38:50
Перевод 1: Профессиональный (двухголосый закадровый)НТВ+
Перевод 2: Профессиональный (многоголосый закадровый)Петербург 5 канал
Субтитры: английские
Оригинальная аудиодорожка: английский
Режиссер: Майкл Уиннер / Michael Winner
В ролях: Берт Ланкастер, Роберт Райан, Ли Дж. Кобб, Роберт Дювалл, Шири Норт, Альберт Сэлми, Ричард Джордан, Джон МакГайвер, Ральф Уэйт, Джон Бек, Уильям Уотсон, Уолтер Брук, Роберт Эмхардт, Чарльз Тайнер, Дж.Д. Кэннон и др.
Описание: Шериф приезжает в маленький городок, намереваясь арестовать нескольких ковбоев, пристреливших по пьяной лавочке несчастного старика. И, хотя все население городка встречает его с ненавистью и проклятиями, это лишь вызывает улыбку на его лице.


СэмплIMDBКинопоиск


Тип релиза: BDRemux 1080p (Lawman.1971.1080p.BluRay.REMUX.AVC.DTS-HD.MA.2.0-EPSiLON)
Контейнер: MKV
Видео: AVC / 1920x1080 / 16:9 / 23.976 fps / 19942 Kbps / [email protected]
Аудио 1 Rus: AC3 / 48.0 KHz / 2.0 / 192 kbps / DVO / НТВ+
Аудио 2 Rus: AC3 / 48.0 KHz / 2.0 / 192 kbps / MVO / Петербург 5 канал
Аудио 3 Eng: DTS-HD MA / 48.0 KHz / 6ch / 863 kbps / 16bit (DTS Core 48.0 KHz / 2.0 / 768 kbps / 16bit)
Формат субтитров: softsub (SRT)

полная версия, бесплатно, оригинал, hd, скачать, download, субтитры, torrent, на русском, кино, высокое качество, fullhd, subs, видео, торрент, фильм

Общее
Уникальный идентификатор : 246397304376791260615533424440115801256 (0xB95E650931F1007B9EA99B002E592CA8)
Полное имя : E:\porvaliparus\Lawman.1971.BDRemux.1080p.mkv
Формат : Matroska
Версия формата : Version 4 / Version 2
Размер файла : 14,6 Гбайт
Продолжительность : 1 ч. 38 м.
Режим общего битрейта : Переменный
Общий поток : 21,2 Мбит/сек
Название фильма : Lawman.1971.BDRemux.1080p-porvaliparus
Дата кодирования : UTC 2017-08-28 08:45:57
Программа кодирования : mkvmerge v15.0.0 ('Duel with the Devil') 64-bit
Библиотека кодирования : libebml v1.3.5 + libmatroska v1.4.5
Видео
Идентификатор : 1
Формат : AVC
Формат/Информация : Advanced Video Codec
Профиль формата : [email protected]
Параметр CABAC формата : Да
Параметр ReFrames формата : 2 кадра
Параметр GOP формата : M=1, N=5
Идентификатор кодека : V_MPEG4/ISO/AVC
Продолжительность : 1 ч. 38 м.
Вид битрейта : Переменный
Битрейт : 19,9 Мбит/сек
Максимальный битрейт : 30,2 Мбит/сек
Ширина : 1920 пикселей
Высота : 1080 пикселей
Соотношение сторон : 16:9
Режим частоты кадров : Постоянный
Частота кадров : 23,976 (24000/1001) кадра/сек
Цветовое пространство : YUV
Субдискретизация насыщенности : 4:2:0
Битовая глубина : 8 бит
Тип развёртки : Прогрессивная
Бит/(Пиксели*Кадры) : 0.401
Размер потока : 13,8 Гбайт (94%)
Заголовок : Lawman.1971.BDRemux.1080p
Default : Да
Forced : Нет
Аудио #1
Идентификатор : 2
Формат : AC-3
Формат/Информация : Audio Coding 3
Параметр Endianness формата : Big
Идентификатор кодека : A_AC3
Продолжительность : 1 ч. 38 м.
Вид битрейта : Постоянный
Битрейт : 192 Кбит/сек
Каналы : 2 канала
Расположение каналов : Front: L R
Частота : 48,0 КГц
Частота кадров : 31,250 кадров/сек (1536 spf)
Битовая глубина : 16 бит
Метод сжатия : С потерями
Размер потока : 136 Мбайт (1%)
Заголовок : DVO [НТВ+]
Язык : Russian
ServiceKind/String : Complete Main
Default : Да
Forced : Нет
Аудио #2
Идентификатор : 3
Формат : AC-3
Формат/Информация : Audio Coding 3
Параметр Endianness формата : Big
Идентификатор кодека : A_AC3
Продолжительность : 1 ч. 38 м.
Вид битрейта : Постоянный
Битрейт : 192 Кбит/сек
Каналы : 2 канала
Расположение каналов : Front: L R
Частота : 48,0 КГц
Частота кадров : 31,250 кадров/сек (1536 spf)
Битовая глубина : 16 бит
Метод сжатия : С потерями
Размер потока : 136 Мбайт (1%)
Заголовок : MVO [Петербург 5 канал]
Язык : Russian
ServiceKind/String : Complete Main
Default : Нет
Forced : Нет
Аудио #3
Идентификатор : 4
Формат : DTS
Формат/Информация : Digital Theater Systems
Профиль формата : MA / Core
Режим : 16
Параметр Endianness формата : Big
Идентификатор кодека : A_DTS
Продолжительность : 1 ч. 38 м.
Вид битрейта : Переменный / Постоянный
Битрейт : 863 Кбит/сек / 768 Кбит/сек
Каналы : 2 канала
Расположение каналов : / Front: L R
Частота : 48,0 КГц
Частота кадров : 93,750 кадра/сек (512 spf)
Битовая глубина : 16 бит
Метод сжатия : Без потерь / Lossy
Размер потока : 610 Мбайт (4%)
Язык : English
Default : Нет
Forced : Нет
Текст
Идентификатор : 5
Формат : UTF-8
Идентификатор кодека : S_TEXT/UTF8
Идентификатор кодека/Информация : UTF-8 Plain Text
Продолжительность : 1 ч. 36 м.
Битрейт : 53 бит/сек
ElementCount : 1448
Размер потока : 38,0 Кбайт (0%)
Язык : English
Default : Нет
Forced : Нет
Меню
00:00:00.000 : en:00:00:00.000
00:05:27.494 : en:00:05:27.494
00:11:06.833 : en:00:11:06.833
00:17:15.034 : en:00:17:15.034
00:28:42.054 : en:00:28:42.054
00:41:25.191 : en:00:41:25.191
00:51:10.776 : en:00:51:10.776
01:01:31.646 : en:01:01:31.646
01:06:57.805 : en:01:06:57.805
01:15:58.137 : en:01:15:58.137
01:26:27.307 : en:01:26:27.307
01:37:27.800 : en:01:37:27.800

[14.62 GB] Скачать / Download