Преступление страсти / Crime of Passion (Герд Освальд / Gerd Oswald) VO (В. Рутилов) + Sub Rus, Eng + Original Eng - Скачать

Страна: США
Студия: Robert Goldstein Productions
Жанр: фильм-нуар, драма, криминал
Год выпуска: 1957
Продолжительность: 01:25:45
Перевод: Одноголосый закадровыйВ. Рутилов
Субтитры: русскиеBums, английские SDH
Оригинальная аудиодорожка: английский
Режиссер: Герд Освальд / Gerd Oswald
В ролях: Барбара Стэнвик, Стерлинг Хейден, Рэймонд Бёрр, Фэй Рэй, Вирджиния Грей, Ройал Дэно, Роберт Гриффин, Дэннис Кросс, Джей Адлер, Стюарт Уитман, Малкольм Аттербери, Роберт Куорри, Гэйл Бонни, Джо Конли, Ральф Брукс и др.
Описание: Кэти Фергюсон ведет колонку в одной из газет Сан-Франциско. Однажды в редакцию газеты заходит лейтенант полиции Билл Дойл. Он видит Кэти, и… уже очень скоро они становятся мужем и женой. Кэти решает оставить работу и заняться домом, но ее не устраивает то, что у Билла нет никаких амбиций, и он не стремится получить повышение по службе. Кэти решает «продвинуть» мужа, даже если для этого понадобится совершить преступление…


СэмплIMDBКинопоиск


Доп. информация:
Перевод Виктора Рутилова собран с голоса. Голос стал доступен благодаряLafajet, Магда, jasenka, елена 22, yanaelisa, old76, surzhoks, duum100, spartakeynoir, leoder, voostorg, борюська, atomic dragonfly, mumzik69, Лямдазонд
Тип релиза: BDRemux 1080p
Контейнер: MKV
Видео: AVC / 1920x1080 / 16:9 / 23.976 fps / 30000 Kbps / [email protected]
Аудио 1 Rus: DTS-HD MA / 48.0 KHz / 2.0 / 1920 kbps / 24 bit (DTS Core 48.0 KHz / 2.0 / 1509 kbps / 24 bit) VO / В. Рутилов
Аудио 2 Eng: DTS-HD MA / 48.0 KHz / 2.0 / 1853 kbps / 24 bit (DTS Core 48.0 KHz / 2.0 / 1509 kbps / 24 bit)
Формат субтитров: softsub (SRT)

полная версия, высокое качество, fullhd, torrent, кино, скачать, оригинал, hd, бесплатно, торрент, download, subs, субтитры, видео, фильм, на русском

Общее
Уникальный идентификатор : 103710107441664957173926021536568511762 (0x4E05D713CAC0BBAFEDC35721C03B0D12)
Полное имя : E:\porvaliparus.2018\Crime.of.Passion.1957.BDRemux.1080p.mkv
Формат : Matroska
Версия формата : Version 4 / Version 2
Размер файла : 19,9 Гбайт
Продолжительность : 1 ч. 25 м.
Общий поток : 33,1 Мбит/сек
Название фильма : Crime.of.Passion.1957.BDRemux.1080p-porvaliparus
Дата кодирования : UTC 2018-02-14 02:08:35
Программа кодирования : mkvmerge v20.0.0 ('I Am The Sun') 64-bit
Библиотека кодирования : libebml v1.3.5 + libmatroska v1.4.8
Видео
Идентификатор : 1
Формат : AVC
Формат/Информация : Advanced Video Codec
Профиль формата : [email protected]
Настройки формата : CABAC / 4 Ref Frames
Параметр CABAC формата : Да
Параметр RefFrames формата : 4 кадра
Идентификатор кодека : V_MPEG4/ISO/AVC
Продолжительность : 1 ч. 25 м.
Вид битрейта : Постоянный
Битрейт : 30,0 Мбит/сек
Ширина : 1920 пикселей
Высота : 1080 пикселей
Соотношение сторон : 16:9
Режим частоты кадров : Постоянный
Частота кадров : 23,976 (24000/1001) кадра/сек
Цветовое пространство : YUV
Субдискретизация насыщенности : 4:2:0
Битовая глубина : 8 бит
Тип развёртки : Прогрессивная
Бит/(Пиксели*Кадры) : 0.603
Размер потока : 17,6 Гбайт (89%)
Заголовок : Crime.of.Passion.1957.BDRemux.1080p
Default : Да
Forced : Нет
Аудио #1
Идентификатор : 2
Формат : DTS
Формат/Информация : Digital Theater Systems
Профиль формата : MA / Core
Идентификатор кодека : A_DTS
Продолжительность : 1 ч. 25 м.
Вид битрейта : Переменный / Постоянный
Битрейт : 1920 Кбит/сек / 1509 Кбит/сек
Каналы : 2 канала
Расположение каналов : Front: L R
Частота : 48,0 КГц
Частота кадров : 93,750 кадра/сек (512 SPF)
Битовая глубина : 24 бит
Метод сжатия : Без потерь / Lossy
Размер потока : 1,15 Гбайт (6%)
Заголовок : VO [В. Рутилов]
Язык : Russian
Default : Да
Forced : Нет
Аудио #2
Идентификатор : 3
Формат : DTS
Формат/Информация : Digital Theater Systems
Профиль формата : MA / Core
Идентификатор кодека : A_DTS
Продолжительность : 1 ч. 25 м.
Вид битрейта : Переменный / Постоянный
Битрейт : 1853 Кбит/сек / 1509 Кбит/сек
Каналы : 2 канала
Расположение каналов : Front: L R
Частота : 48,0 КГц
Частота кадров : 93,750 кадра/сек (512 SPF)
Битовая глубина : 24 бит
Метод сжатия : Без потерь / Lossy
Размер потока : 1,11 Гбайт (6%)
Язык : English
Default : Нет
Forced : Нет
Текст #1
Идентификатор : 4
Формат : UTF-8
Идентификатор кодека : S_TEXT/UTF8
Идентификатор кодека/Информация : UTF-8 Plain Text
Продолжительность : 1 ч. 25 м.
Битрейт : 103 бит/сек
ElementCount : 1309
Размер потока : 64,7 Кбайт (0%)
Заголовок : Bums
Язык : Russian
Default : Нет
Forced : Нет
Текст #2
Идентификатор : 5
Формат : UTF-8
Идентификатор кодека : S_TEXT/UTF8
Идентификатор кодека/Информация : UTF-8 Plain Text
Продолжительность : 1 ч. 23 м.
Битрейт : 78 бит/сек
ElementCount : 1513
Размер потока : 48,0 Кбайт (0%)
Язык : English
Default : Нет
Forced : Нет
Меню
00:00:00.000 : en:00:00:00.000
00:01:21.039 : en:00:01:21.039
00:03:46.810 : en:00:03:46.810
00:06:12.372 : en:00:06:12.372
00:10:53.611 : en:00:10:53.611
00:12:54.107 : en:00:12:54.107
00:14:16.439 : en:00:14:16.439
00:16:29.906 : en:00:16:29.906
00:21:42.510 : en:00:21:42.510
00:30:07.723 : en:00:30:07.723
00:35:14.904 : en:00:35:14.904
00:39:06.094 : en:00:39:06.094
00:42:32.467 : en:00:42:32.467
00:45:36.275 : en:00:45:36.275
00:54:06.410 : en:00:54:06.410
00:59:48.752 : en:00:59:48.752
01:05:14.911 : en:01:05:14.911
01:11:06.471 : en:01:11:06.471
01:17:51.542 : en:01:17:51.542
01:21:53.742 : en:01:21:53.742
01:25:20.949 : en:01:25:20.949
DISC INFO:
Disc Title: Crime_Of_Passion
Disc Size: 21 750 207 018 bytes
Protection: AACS
BD-Java: Yes
BDInfo: 0.5.8
PLAYLIST REPORT:
Name: 00002.MPLS
Length: 1:25:44.848 (h:m:s.ms)
Size: 21 621 792 768 bytes
Total Bitrate: 33,62 Mbps
VIDEO:
Codec Bitrate Description
----- ------- -----------
MPEG-4 AVC Video 30000 kbps 1080p / 23,976 fps / 16:9 / High Profile 4.1
AUDIO:
Codec Language Bitrate Description
----- -------- ------- -----------
DTS-HD Master Audio English 1853 kbps 2.0 / 48 kHz / 1853 kbps / 24-bit (DTS Core: 2.0 / 48 kHz / 1509 kbps / 24-bit)
SUBTITLES:
Codec Language Bitrate Description
----- -------- ------- -----------
Presentation Graphics English 54,481 kbps

[19.85 GB] Скачать / Download