Привидение / Призрак / Ghost (Джерри Цукер / Jerry Zucker) - Скачать

Год выпуска: 1990
Страна: США
Жанр: триллер, фэнтези, комедия, мелодрама, драма, детектив
Продолжительность: 02:06:39
Перевод: Профессиональный (многоголосый, закадровый)
Русские субтитры: есть
Режиссер: Джерри Цукер / Jerry Zucker
В ролях:Пэтрик Суэйзи / Patrick Swayze,Деми Мур / Demi Moore,Вупи Голдберг / Whoopi Goldberg, Тони Голдуин / Tony Goldwyn, Армилия МакКуин / Armelia McQueen, Гэйл Боггс / Gail Boggs
Описание: Счастливая парочка возвращается домой после вечера в театре. На тёмной аллее на них нападает грабитель… Защищаясь, Сэм погибает. Теперь он только призрак, но всё еще может помочь своей возлюбленной! Сэм-привидение узнаёт, что его смерть не была случайной, а над Молли нависла смертельная опасность! Но для Молли он теперь человек-невидимка, которого она не видит и не слышит. Как предупредить её об опасности?
Единственный способ связаться с Молли и передать ей важное сообщение — воспользоваться сверхъестественными способностями неопытной женщины-медиума по имени Ода Мэй Браун. Ода не уверена в своих силах, но очень хочет помочь…
«You will believe.»
Доп. информация:

Самый кассовый фильм 1990 года.
Качество: Blu-ray
Видео: MPEG-4/AVC, 1920x1080p, 16:9, 23.976 fps, 31933 kbps
Аудио:
Английский TrueHD / 48 kHz / 3176 kbps / 24-bit
Русский DTS / 48 kHz / 1509 kbps / 24-bit(Михалёв)
Русский Dolby Digital 5.1 / 48 kHz / 384 kbps(многоголосый)
Французский Dolby Digital 5.1 / 48 kHz / 640 kbps
Английский Dolby Digital 2.0 / 48 kHz / 192 kbps (комментарии)
Субтитры: Русские (2 варианта), английские, французские
Меню: Англоязычное

фильм, torrent, оригинал, на русском, hd, высокое качество, fullhd, кино, видео, субтитры, торрент, бесплатно, полная версия, скачать, download, subs

Диск пересобран из оригинальных Blu-ray дисков. Используемые программы: BD Reauthor от DVDLogic Software и Sonic Scenarist BD. Полностью сохранена структура оригинальных Blu-ray дисков (включая меню, Pop-up меню, и т.д.).
Для воспроизведения в ArcSoft TotalMedia Theatre и перед записью на диск для воспроизведения на PS3 удалите папку AACS.
Воспроизведение проверено и на компьютере и на бытовом Blu-ray плеере Sony. Должно проигрываться и на PS3.
- Cinema's Great Romances
- Photo Gallery
- Theatrical Trailer
- Commentary by Director Jerry Zucker and Writer Buce Joel Rubin
- Ghost Stories: The Making of a Clessic
- Inside the Paranormal
- Alchemy of a Love Scene
Оскар, 1991 год
Победитель (2):
- Лучшая женская роль второго плана (Вупи Голдберг)
Лучший сценарий
- Номинации (3):
- Лучший фильм
- Лучший монтаж
- Лучший оригинальный саундтрек
Золотой глобус, 1991 год
Победитель (1):
- Лучшая женская роль второго плана (Вупи Голдберг)
Номинации (3):
- Лучший фильм (комедия или мюзикл)
- Лучшая мужская роль (комедия или мюзикл) (Патрик Суэйзи)
- Лучшая женская роль (комедия или мюзикл) (Деми Мур)
Британская академия, 1991 год
Победитель (1):
- Лучшая женская роль второго плана (Вупи Голдберг)
Номинации (3):
- Лучший оригинальный сценарий
- Лучшие визуальные эффекты
- Лучший грим
- На показах в мексиканском городе Монтеррей, зрительницам на входе выдавались специальные конверты, внутри которых находились носовые платки.
- На роль Оды Мэй Браун планировалось пригласить другую актрису, но Патрик Суэйзи, большой почитатель таланта Вупи Голдберг, сумел убедить продюсеров, что афроамериканская актриса наилучший кандидат на ее исполнение.
- Режиссер Джерри Цукер в каждой своей картине обязательно дает эпизодическую роль своей матери. Здесь она сыграла сотрудницу банка.
- Брюс Уиллис отказался от главной роли, посчитав, что фильм непременно провалится в прокате.
- Среди огромного списка претендентов на главную роль, фигурировало имя Пола Хогана. Но актер предпочел работу над проектом «Почти ангел» (1990).
- Ужасные крики «демонов» в действительности являются детскими криками, проигранными с замедленной скоростью.
- На роль Молли пробовалась актриса Молли Рингуолд.
Disc Title: Ghost Rus
Disc Size: 43 914 361 506 bytes
Protection: AACS
BD-Java: Yes
BDInfo: 0.5.2
********************
PLAYLIST: 00001.MPLS
********************
<--- BEGIN FORUMS PASTE --->
Код:
Total Video
Title Codec Length Movie Size Disc Size Bitrate Bitrate Main Audio Track Secondary Audio Track
----- ------ ------- -------------- -------------- ------- ------- ------------------ ---------------------
00001.MPLS AVC 2:06:39 39 537 733 632 43 914 361 506 41,62 31,93 Dolby TrueHD 5.1 3176Kbps (48kHz/24-bit)
Код:
DISC INFO:
Disc Title: Ghost Rus
Disc Size: 43 914 361 506 bytes
Protection: AACS
BD-Java: Yes
BDInfo: 0.5.2
PLAYLIST REPORT:
Name: 00001.MPLS
Size: 39 537 733 632 bytes
Length: 2:06:39 (h:m:s)
Total Bitrate: 41,62 Mbps
Description:
VIDEO:
Codec Bitrate Description
----- ------- -----------
MPEG-4 AVC Video 31933 kbps 1080p / 23,976 fps / 16:9 / High Profile 4.1
AUDIO:
Codec Language Bitrate Description
----- -------- ------- -----------
Dolby TrueHD Audio English 3176 kbps 5.1 / 48 kHz / 3176 kbps / 24-bit (AC3 Core: 5.1 / 48 kHz / 640 kbps)
DTS Audio Russian 1509 kbps 5.1 / 48 kHz / 1509 kbps / 24-bit
Dolby Digital Audio French 640 kbps 5.1 / 48 kHz / 640 kbps
Dolby Digital Audio Russian 384 kbps 5.1 / 48 kHz / 384 kbps
Dolby Digital Audio English 192 kbps 2.0 / 48 kHz / 192 kbps
SUBTITLES:
Codec Language Bitrate Description
----- -------- ------- -----------
Presentation Graphics English 33,393 kbps
Presentation Graphics English 36,179 kbps
Presentation Graphics French 22,263 kbps
Presentation Graphics Russian 24,826 kbps
Presentation Graphics Russian 21,644 kbps
FILES:
Name Time In Length Size Total Bitrate
---- ------- ------ ---- -------------
00001.M2TS 0:00:00.000 2:06:39.592 39 537 733 632 41 621
CHAPTERS:
Number Time In Length Avg Video Rate Max 1-Sec Rate Max 1-Sec Time Max 5-Sec Rate Max 5-Sec Time Max 10Sec Rate Max 10Sec Time Avg Frame Size Max Frame Size Max Frame Time
------ ------- ------ -------------- -------------- -------------- -------------- -------------- -------------- -------------- -------------- -------------- --------------
1 0:00:00.000 0:11:08.250 31 893 kbps 61 631 kbps 00:00:40.582 39 818 kbps 00:00:40.582 36 669 kbps 00:02:18.763 166 266 bytes 761 196 bytes 00:00:40.874
2 0:11:08.250 0:06:09.786 32 346 kbps 42 261 kbps 00:15:21.003 36 747 kbps 00:13:27.181 36 115 kbps 00:13:26.764 168 635 bytes 728 883 bytes 00:15:43.901
3 0:17:18.037 0:14:48.554 31 715 kbps 43 601 kbps 00:20:26.516 37 338 kbps 00:29:28.057 36 500 kbps 00:24:58.955 165 349 bytes 636 321 bytes 00:27:05.582
4 0:32:06.591 0:05:36.169 32 348 kbps 49 001 kbps 00:35:38.886 36 815 kbps 00:32:11.262 36 229 kbps 00:34:43.706 168 648 bytes 506 907 bytes 00:36:15.590
5 0:37:42.760 0:09:21.769 31 772 kbps 43 816 kbps 00:38:23.592 36 890 kbps 00:38:23.592 35 353 kbps 00:38:23.592 165 645 bytes 603 772 bytes 00:38:08.911
6 0:47:04.530 0:25:19.226 31 912 kbps 51 164 kbps 00:52:44.244 37 707 kbps 01:02:08.474 35 668 kbps 01:01:59.132 166 375 bytes 621 243 bytes 01:04:27.446
7 1:12:23.756 0:05:38.755 32 488 kbps 48 791 kbps 01:16:49.396 37 207 kbps 01:16:48.270 35 664 kbps 01:17:34.733 169 377 bytes 575 312 bytes 01:16:50.230
8 1:18:02.511 0:04:14.295 30 935 kbps 44 619 kbps 01:21:19.541 35 209 kbps 01:21:24.671 33 404 kbps 01:21:24.671 161 283 bytes 591 001 bytes 01:22:16.806
9 1:22:16.806 0:12:14.150 31 951 kbps 43 846 kbps 01:31:30.026 36 891 kbps 01:28:47.530 36 188 kbps 01:28:47.572 166 577 bytes 577 545 bytes 01:31:11.632
10 1:34:30.956 0:04:23.137 32 774 kbps 42 853 kbps 01:35:41.944 36 357 kbps 01:35:38.983 35 279 kbps 01:35:33.978 170 871 bytes 727 844 bytes 01:36:01.380
11 1:38:54.094 0:05:32.582 31 214 kbps 45 773 kbps 01:41:56.652 36 258 kbps 01:41:07.478 35 027 kbps 01:41:02.431 162 737 bytes 524 566 bytes 01:42:23.387
12 1:44:26.677 0:04:42.824 32 773 kbps 45 834 kbps 01:47:15.429 37 675 kbps 01:46:11.114 36 576 kbps 01:46:07.319 170 864 bytes 504 032 bytes 01:44:27.469
13 1:49:09.501 0:03:04.434 31 630 kbps 37 988 kbps 01:49:59.634 34 113 kbps 01:49:59.593 33 611 kbps 01:49:59.634 164 903 bytes 488 947 bytes 01:52:03.466
14 1:52:13.935 0:05:26.451 31 300 kbps 50 018 kbps 01:55:31.257 36 710 kbps 01:52:44.132 36 029 kbps 01:52:32.162 163 183 bytes 552 827 bytes 01:55:31.966
15 1:57:40.386 0:04:34.941 32 070 kbps 42 367 kbps 02:00:51.410 36 539 kbps 01:59:23.114 35 447 kbps 02:00:34.852 167 196 bytes 453 296 bytes 02:01:55.182
16 2:02:15.328 0:04:24.264 32 353 kbps 56 310 kbps 02:06:33.377 37 374 kbps 02:02:16.746 35 952 kbps 02:02:16.829 168 727 bytes 764 191 bytes 02:06:33.544
STREAM DIAGNOSTICS:
File PID Type Codec Language Seconds Bitrate Bytes Packets
---- --- ---- ----- -------- -------------- -------------- ------------- -----
00001.M2TS 4113 (0x1011) 0x1B AVC 7599,509 31 934 30 335 112 681 164 972 048
00001.M2TS 4352 (0x1100) 0x83 TrueHD eng (English) 7599,509 3 816 3 624 923 674 24 497 431
00001.M2TS 4353 (0x1101) 0x82 DTS rus (Russian) 7599,509 1 510 1 434 171 915 8 549 460
00001.M2TS 4354 (0x1102) 0x81 AC3 rus (Russian) 7599,509 384 364 982 784 2 138 571
00001.M2TS 4355 (0x1103) 0x81 AC3 eng (English) 7599,509 192 182 390 784 1 187 440
00001.M2TS 4356 (0x1104) 0x81 AC3 fra (French) 7599,509 640 607 969 280 3 562 320
00001.M2TS 4608 (0x1200) 0x90 PGS eng (English) 7599,509 33 31 721 350 181 777
00001.M2TS 4609 (0x1201) 0x90 PGS eng (English) 7599,509 36 34 368 619 197 091
00001.M2TS 4610 (0x1202) 0x90 PGS fra (French) 7599,509 22 21 148 240 122 864
00001.M2TS 4611 (0x1203) 0x90 PGS rus (Russian) 7599,509 25 23 583 565 142 418
00001.M2TS 4612 (0x1204) 0x90 PGS rus (Russian) 7599,509 22 20 560 838 119 522
<---- END FORUMS PASTE ---->
QUICK SUMMARY:
Disc Title: Ghost Rus
Disc Size: 43 914 361 506 bytes
Protection: AACS
BD-Java: Yes
Playlist: 00001.MPLS
Size: 39 537 733 632 bytes
Length: 2:06:39
Total Bitrate: 41,62 Mbps
Video: MPEG-4 AVC Video / 31933 kbps / 1080p / 23,976 fps / 16:9 / High Profile 4.1
Audio: English / Dolby TrueHD Audio / 5.1 / 48 kHz / 3176 kbps / 24-bit (AC3 Core: 5.1 / 48 kHz / 640 kbps)
Audio: Russian / DTS Audio / 5.1 / 48 kHz / 1509 kbps / 24-bit
Audio: French / Dolby Digital Audio / 5.1 / 48 kHz / 640 kbps
Audio: Russian / Dolby Digital Audio / 5.1 / 48 kHz / 384 kbps
Audio: English / Dolby Digital Audio / 2.0 / 48 kHz / 192 kbps
Subtitle: English / 33,393 kbps
Subtitle: English / 36,179 kbps
Subtitle: French / 22,263 kbps
Subtitle: Russian / 24,826 kbps
Subtitle: Russian / 21,644 kbps
********************
PLAYLIST: 00008.MPLS
********************
<--- BEGIN FORUMS PASTE --->
Код:
Total Video
Title Codec Length Movie Size Disc Size Bitrate Bitrate Main Audio Track Secondary Audio Track
----- ------ ------- -------------- -------------- ------- ------- ------------------ ---------------------
00008.MPLS MPEG-2 0:19:45 930 428 928 43 914 361 506 6,28 5,60 DD AC3 2.0 224Kbps
Код:
DISC INFO:
Disc Title: Ghost Rus
Disc Size: 43 914 361 506 bytes
Protection: AACS
BD-Java: Yes
BDInfo: 0.5.2
PLAYLIST REPORT:
Name: 00008.MPLS
Size: 930 428 928 bytes
Length: 0:19:45 (h:m:s)
Total Bitrate: 6,28 Mbps
Description:
VIDEO:
Codec Bitrate Description
----- ------- -----------
MPEG-2 Video 5602 kbps 480i / 29,970 fps / 4:3
AUDIO:
Codec Language Bitrate Description
----- -------- ------- -----------
Dolby Digital Audio English 224 kbps 2.0 / 48 kHz / 224 kbps
SUBTITLES:
Codec Language Bitrate Description
----- -------- ------- -----------
Presentation Graphics English 24,965 kbps
Presentation Graphics French 24,175 kbps
Presentation Graphics Portuguese 24,127 kbps
Presentation Graphics Spanish 23,894 kbps
FILES:
Name Time In Length Size Total Bitrate
---- ------- ------ ---- -------------
00018.M2TS 0:00:00.000 0:19:45.651 930 428 928 6 278
CHAPTERS:
Number Time In Length Avg Video Rate Max 1-Sec Rate Max 1-Sec Time Max 5-Sec Rate Max 5-Sec Time Max 10Sec Rate Max 10Sec Time Avg Frame Size Max Frame Size Max Frame Time
------ ------- ------ -------------- -------------- -------------- -------------- -------------- -------------- -------------- -------------- -------------- --------------
1 0:00:00.000 0:19:45.651 5 602 kbps 14 645 kbps 00:12:07.626 11 818 kbps 00:07:08.961 10 545 kbps 00:06:49.609 23 365 bytes 159 922 bytes 00:05:00.133
STREAM DIAGNOSTICS:
File PID Type Codec Language Seconds Bitrate Bytes Packets
---- --- ---- ----- -------- -------------- -------------- ------------- -----
00018.M2TS 4113 (0x1011) 0x02 MPEG-2 1185,584 5 602 830 256 534 4 532 896
00018.M2TS 4352 (0x1100) 0x81 AC3 eng (English) 1185,584 224 33 198 592 185 260
00018.M2TS 4608 (0x1200) 0x90 PGS eng (English) 1185,584 25 3 699 965 22 430
00018.M2TS 4609 (0x1201) 0x90 PGS fra (French) 1185,584 24 3 582 841 21 943
00018.M2TS 4610 (0x1202) 0x90 PGS spa (Spanish) 1185,584 24 3 541 248 21 755
00018.M2TS 4611 (0x1203) 0x90 PGS por (Portuguese) 1185,584 24 3 575 843 21 941
<---- END FORUMS PASTE ---->
QUICK SUMMARY:
Disc Title: Ghost Rus
Disc Size: 43 914 361 506 bytes
Protection: AACS
BD-Java: Yes
Playlist: 00008.MPLS
Size: 930 428 928 bytes
Length: 0:19:45
Total Bitrate: 6,28 Mbps
Video: MPEG-2 Video / 5602 kbps / 480i / 29,970 fps / 4:3
Audio: English / Dolby Digital Audio / 2.0 / 48 kHz / 224 kbps
Subtitle: English / 24,965 kbps
Subtitle: French / 24,175 kbps
Subtitle: Portuguese / 24,127 kbps
Subtitle: Spanish / 23,894 kbps
********************
PLAYLIST: 00005.MPLS
********************
<--- BEGIN FORUMS PASTE --->
Код:
Total Video
Title Codec Length Movie Size Disc Size Bitrate Bitrate Main Audio Track Secondary Audio Track
----- ------ ------- -------------- -------------- ------- ------- ------------------ ---------------------
00005.MPLS MPEG-2 0:13:06 624 224 256 43 914 361 506 6,35 5,68 DD AC3 2.0 224Kbps
Код:
DISC INFO:
Disc Title: Ghost Rus
Disc Size: 43 914 361 506 bytes
Protection: AACS
BD-Java: Yes
BDInfo: 0.5.2
PLAYLIST REPORT:
Name: 00005.MPLS
Size: 624 224 256 bytes
Length: 0:13:06 (h:m:s)
Total Bitrate: 6,35 Mbps
Description:
VIDEO:
Codec Bitrate Description
----- ------- -----------
MPEG-2 Video 5677 kbps 480i / 29,970 fps / 4:3
AUDIO:
Codec Language Bitrate Description
----- -------- ------- -----------
Dolby Digital Audio English 224 kbps 2.0 / 48 kHz / 224 kbps
SUBTITLES:
Codec Language Bitrate Description
----- -------- ------- -----------
Presentation Graphics English 24,775 kbps
Presentation Graphics French 23,075 kbps
Presentation Graphics Portuguese 22,691 kbps
Presentation Graphics Spanish 22,375 kbps
FILES:
Name Time In Length Size Total Bitrate
---- ------- ------ ---- -------------
00015.M2TS 0:00:00.000 0:13:06.318 624 224 256 6 351
CHAPTERS:
Number Time In Length Avg Video Rate Max 1-Sec Rate Max 1-Sec Time Max 5-Sec Rate Max 5-Sec Time Max 10Sec Rate Max 10Sec Time Avg Frame Size Max Frame Size Max Frame Time
------ ------- ------ -------------- -------------- -------------- -------------- -------------- -------------- -------------- -------------- -------------- --------------
1 0:00:00.000 0:13:06.318 5 677 kbps 15 734 kbps 00:10:49.649 13 051 kbps 00:03:09.722 11 411 kbps 00:10:40.840 23 679 bytes 152 474 bytes 00:05:25.458
STREAM DIAGNOSTICS:
File PID Type Codec Language Seconds Bitrate Bytes Packets
---- --- ---- ----- -------- -------------- -------------- ------------- -----
00015.M2TS 4113 (0x1011) 0x02 MPEG-2 786,185 5 678 558 025 688 3 046 391
00015.M2TS 4352 (0x1100) 0x81 AC3 eng (English) 786,185 224 22 017 408 122 865
00015.M2TS 4608 (0x1200) 0x90 PGS eng (English) 786,185 25 2 435 093 14 633
00015.M2TS 4609 (0x1201) 0x90 PGS fra (French) 786,185 23 2 268 005 13 830
00015.M2TS 4610 (0x1202) 0x90 PGS spa (Spanish) 786,185 22 2 199 192 13 455
00015.M2TS 4611 (0x1203) 0x90 PGS por (Portuguese) 786,185 23 2 230 328 13 633
<---- END FORUMS PASTE ---->
QUICK SUMMARY:
Disc Title: Ghost Rus
Disc Size: 43 914 361 506 bytes
Protection: AACS
BD-Java: Yes
Playlist: 00005.MPLS
Size: 624 224 256 bytes
Length: 0:13:06
Total Bitrate: 6,35 Mbps
Video: MPEG-2 Video / 5677 kbps / 480i / 29,970 fps / 4:3
Audio: English / Dolby Digital Audio / 2.0 / 48 kHz / 224 kbps
Subtitle: English / 24,775 kbps
Subtitle: French / 23,075 kbps
Subtitle: Portuguese / 22,691 kbps
Subtitle: Spanish / 22,375 kbps
********************
PLAYLIST: 00006.MPLS
********************
<--- BEGIN FORUMS PASTE --->
Код:
Total Video
Title Codec Length Movie Size Disc Size Bitrate Bitrate Main Audio Track Secondary Audio Track
----- ------ ------- -------------- -------------- ------- ------- ------------------ ---------------------
00006.MPLS MPEG-2 0:08:35 397 694 976 43 914 361 506 6,17 5,49 DD AC3 2.0 224Kbps
Код:
DISC INFO:
Disc Title: Ghost Rus
Disc Size: 43 914 361 506 bytes
Protection: AACS
BD-Java: Yes
BDInfo: 0.5.2
PLAYLIST REPORT:
Name: 00006.MPLS
Size: 397 694 976 bytes
Length: 0:08:35 (h:m:s)
Total Bitrate: 6,17 Mbps
Description:
VIDEO:
Codec Bitrate Description
----- ------- -----------
MPEG-2 Video 5492 kbps 480i / 29,970 fps / 4:3
AUDIO:
Codec Language Bitrate Description
----- -------- ------- -----------
Dolby Digital Audio English 224 kbps 2.0 / 48 kHz / 224 kbps
SUBTITLES:
Codec Language Bitrate Description
----- -------- ------- -----------
Presentation Graphics English 27,394 kbps
Presentation Graphics French 25,443 kbps
Presentation Graphics Portuguese 25,522 kbps
Presentation Graphics Spanish 24,616 kbps
FILES:
Name Time In Length Size Total Bitrate
---- ------- ------ ---- -------------
00016.M2TS 0:00:00.000 0:08:35.648 397 694 976 6 170
CHAPTERS:
Number Time In Length Avg Video Rate Max 1-Sec Rate Max 1-Sec Time Max 5-Sec Rate Max 5-Sec Time Max 10Sec Rate Max 10Sec Time Avg Frame Size Max Frame Size Max Frame Time
------ ------- ------ -------------- -------------- -------------- -------------- -------------- -------------- -------------- -------------- -------------- --------------
1 0:00:00.000 0:08:35.648 5 492 kbps 11 480 kbps 00:04:50.757 8 841 kbps 00:02:47.967 7 952 kbps 00:02:47.967 22 906 bytes 152 475 bytes 00:05:01.734
STREAM DIAGNOSTICS:
File PID Type Codec Language Seconds Bitrate Bytes Packets
---- --- ---- ----- -------- -------------- -------------- ------------- -----
00016.M2TS 4113 (0x1011) 0x02 MPEG-2 515,515 5 493 353 985 909 1 932 743
00016.M2TS 4352 (0x1100) 0x81 AC3 eng (English) 515,515 224 14 439 040 80 575
00016.M2TS 4608 (0x1200) 0x90 PGS eng (English) 515,515 27 1 765 699 10 723
00016.M2TS 4609 (0x1201) 0x90 PGS fra (French) 515,515 25 1 639 937 10 060
00016.M2TS 4610 (0x1202) 0x90 PGS spa (Spanish) 515,515 25 1 586 652 9 799
00016.M2TS 4611 (0x1203) 0x90 PGS por (Portuguese) 515,515 26 1 645 018 10 119
<---- END FORUMS PASTE ---->
QUICK SUMMARY:
Disc Title: Ghost Rus
Disc Size: 43 914 361 506 bytes
Protection: AACS
BD-Java: Yes
Playlist: 00006.MPLS
Size: 397 694 976 bytes
Length: 0:08:35
Total Bitrate: 6,17 Mbps
Video: MPEG-2 Video / 5492 kbps / 480i / 29,970 fps / 4:3
Audio: English / Dolby Digital Audio / 2.0 / 48 kHz / 224 kbps
Subtitle: English / 27,394 kbps
Subtitle: French / 25,443 kbps
Subtitle: Portuguese / 25,522 kbps
Subtitle: Spanish / 24,616 kbps
********************
PLAYLIST: 00007.MPLS
********************
<--- BEGIN FORUMS PASTE --->
Код:
Total Video
Title Codec Length Movie Size Disc Size Bitrate Bitrate Main Audio Track Secondary Audio Track
----- ------ ------- -------------- -------------- ------- ------- ------------------ ---------------------
00007.MPLS MPEG-2 0:06:16 294 488 064 43 914 361 506 6,25 5,58 DD AC3 2.0 224Kbps
Код:
DISC INFO:
Disc Title: Ghost Rus
Disc Size: 43 914 361 506 bytes
Protection: AACS
BD-Java: Yes
BDInfo: 0.5.2
PLAYLIST REPORT:
Name: 00007.MPLS
Size: 294 488 064 bytes
Length: 0:06:16 (h:m:s)
Total Bitrate: 6,25 Mbps
Description:
VIDEO:
Codec Bitrate Description
----- ------- -----------
MPEG-2 Video 5580 kbps 480i / 29,970 fps / 4:3
AUDIO:
Codec Language Bitrate Description
----- -------- ------- -----------
Dolby Digital Audio English 224 kbps 2.0 / 48 kHz / 224 kbps
SUBTITLES:
Codec Language Bitrate Description
----- -------- ------- -----------
Presentation Graphics English 25,243 kbps
Presentation Graphics French 22,843 kbps
Presentation Graphics Portuguese 22,652 kbps
Presentation Graphics Spanish 22,639 kbps
FILES:
Name Time In Length Size Total Bitrate
---- ------- ------ ---- -------------
00017.M2TS 0:00:00.000 0:06:16.976 294 488 064 6 249
CHAPTERS:
Number Time In Length Avg Video Rate Max 1-Sec Rate Max 1-Sec Time Max 5-Sec Rate Max 5-Sec Time Max 10Sec Rate Max 10Sec Time Avg Frame Size Max Frame Size Max Frame Time
------ ------- ------ -------------- -------------- -------------- -------------- -------------- -------------- -------------- -------------- -------------- --------------
1 0:00:00.000 0:06:16.976 5 580 kbps 12 803 kbps 00:04:43.316 11 854 kbps 00:04:41.314 11 141 kbps 00:05:23.289 23 272 bytes 152 473 bytes 00:05:54.187
STREAM DIAGNOSTICS:
File PID Type Codec Language Seconds Bitrate Bytes Packets
---- --- ---- ----- -------- -------------- -------------- ------------- -----
00017.M2TS 4113 (0x1011) 0x02 MPEG-2 376,877 5 581 262 928 465 1 435 549
00017.M2TS 4352 (0x1100) 0x81 AC3 eng (English) 376,877 224 10 555 776 58 905
00017.M2TS 4608 (0x1200) 0x90 PGS eng (English) 376,877 25 1 189 519 7 112
00017.M2TS 4609 (0x1201) 0x90 PGS fra (French) 376,877 23 1 076 398 6 558
00017.M2TS 4610 (0x1202) 0x90 PGS spa (Spanish) 376,877 23 1 066 797 6 498
00017.M2TS 4611 (0x1203) 0x90 PGS por (Portuguese) 376,877 23 1 067 400 6 500
<---- END FORUMS PASTE ---->
QUICK SUMMARY:
Disc Title: Ghost Rus
Disc Size: 43 914 361 506 bytes
Protection: AACS
BD-Java: Yes
Playlist: 00007.MPLS
Size: 294 488 064 bytes
Length: 0:06:16
Total Bitrate: 6,25 Mbps
Video: MPEG-2 Video / 5580 kbps / 480i / 29,970 fps / 4:3
Audio: English / Dolby Digital Audio / 2.0 / 48 kHz / 224 kbps
Subtitle: English / 25,243 kbps
Subtitle: French / 22,843 kbps
Subtitle: Portuguese / 22,652 kbps
Subtitle: Spanish / 22,639 kbps
********************
PLAYLIST: 00009.MPLS
********************
<--- BEGIN FORUMS PASTE --->
Код:
Total Video
Title Codec Length Movie Size Disc Size Bitrate Bitrate Main Audio Track Secondary Audio Track
----- ------ ------- -------------- -------------- ------- ------- ------------------ ---------------------
00009.MPLS MPEG-2 0:02:26 475 189 248 43 914 361 506 26,01 24,63 DD AC3 2.0 224Kbps
Код:
DISC INFO:
Disc Title: Ghost Rus
Disc Size: 43 914 361 506 bytes
Protection: AACS
BD-Java: Yes
BDInfo: 0.5.2
PLAYLIST REPORT:
Name: 00009.MPLS
Size: 475 189 248 bytes
Length: 0:02:26 (h:m:s)
Total Bitrate: 26,01 Mbps
Description:
VIDEO:
Codec Bitrate Description
----- ------- -----------
MPEG-2 Video 24628 kbps 1080p / 23,976 fps / 16:9
AUDIO:
Codec Language Bitrate Description
----- -------- ------- -----------
Dolby Digital Audio English 224 kbps 2.0 / 48 kHz / 224 kbps
FILES:
Name Time In Length Size Total Bitrate
---- ------- ------ ---- -------------
00104.M2TS 0:00:00.000 0:02:26.145 475 189 248 26 012
CHAPTERS:
Number Time In Length Avg Video Rate Max 1-Sec Rate Max 1-Sec Time Max 5-Sec Rate Max 5-Sec Time Max 10Sec Rate Max 10Sec Time Avg Frame Size Max Frame Size Max Frame Time
------ ------- ------ -------------- -------------- -------------- -------------- -------------- -------------- -------------- -------------- -------------- --------------
1 0:00:00.000 0:02:26.145 24 628 kbps 33 371 kbps 00:01:03.271 30 158 kbps 00:00:59.267 27 416 kbps 00:00:58.224 128 398 bytes 657 476 bytes 00:00:00.417
STREAM DIAGNOSTICS:
File PID Type Codec Language Seconds Bitrate Bytes Packets
---- --- ---- ----- -------- -------------- -------------- ------------- -----
00104.M2TS 4113 (0x1011) 0x02 MPEG-2 146,021 24 649 449 905 230 2 447 193
00104.M2TS 4352 (0x1100) 0x81 AC3 eng (English) 146,021 224 4 092 928 22 840
<---- END FORUMS PASTE ---->
QUICK SUMMARY:
Disc Title: Ghost Rus
Disc Size: 43 914 361 506 bytes
Protection: AACS
BD-Java: Yes
Playlist: 00009.MPLS
Size: 475 189 248 bytes
Length: 0:02:26
Total Bitrate: 26,01 Mbps
Video: MPEG-2 Video / 24628 kbps / 1080p / 23,976 fps / 16:9
Audio: English / Dolby Digital Audio / 2.0 / 48 kHz / 224 kbps
********************
PLAYLIST: 00002.MPLS
********************
<--- BEGIN FORUMS PASTE --->
Код:
Total Video
Title Codec Length Movie Size Disc Size Bitrate Bitrate Main Audio Track Secondary Audio Track
----- ------ ------- -------------- -------------- ------- ------- ------------------ ---------------------
00002.MPLS MPEG-2 0:00:57 174 999 552 43 914 361 506 24,39 23,08 DD AC3 2.0 192Kbps
Код:
DISC INFO:
Disc Title: Ghost Rus
Disc Size: 43 914 361 506 bytes
Protection: AACS
BD-Java: Yes
BDInfo: 0.5.2
PLAYLIST REPORT:
Name: 00002.MPLS
Size: 174 999 552 bytes
Length: 0:00:57 (h:m:s)
Total Bitrate: 24,39 Mbps
Description:
VIDEO:
Codec Bitrate Description
----- ------- -----------
MPEG-2 Video 23077 kbps 1080p / 23,976 fps / 16:9
AUDIO:
Codec Language Bitrate Description
----- -------- ------- -----------
Dolby Digital Audio English 192 kbps 2.0 / 48 kHz / 192 kbps
FILES:
Name Time In Length Size Total Bitrate
---- ------- ------ ---- -------------
00002.M2TS 0:00:00.000 0:00:57.390 174 999 552 24 394
CHAPTERS:
Number Time In Length Avg Video Rate Max 1-Sec Rate Max 1-Sec Time Max 5-Sec Rate Max 5-Sec Time Max 10Sec Rate Max 10Sec Time Avg Frame Size Max Frame Size Max Frame Time
------ ------- ------ -------------- -------------- -------------- -------------- -------------- -------------- -------------- -------------- -------------- --------------
1 0:00:00.000 0:00:57.390 23 077 kbps 27 322 kbps 00:00:32.657 25 753 kbps 00:00:32.532 24 746 kbps 00:00:28.486 120 311 bytes 477 252 bytes 00:00:33.033
STREAM DIAGNOSTICS:
File PID Type Codec Language Seconds Bitrate Bytes Packets
---- --- ---- ----- -------- -------------- -------------- ------------- -----
00002.M2TS 4113 (0x1011) 0x02 MPEG-2 57,224 23 144 165 547 633 900 532
00002.M2TS 4352 (0x1100) 0x81 AC3 eng (English) 57,224 193 1 377 792 8 970
<---- END FORUMS PASTE ---->
QUICK SUMMARY:
Disc Title: Ghost Rus
Disc Size: 43 914 361 506 bytes
Protection: AACS
BD-Java: Yes
Playlist: 00002.MPLS
Size: 174 999 552 bytes
Length: 0:00:57
Total Bitrate: 24,39 Mbps
Video: MPEG-2 Video / 23077 kbps / 1080p / 23,976 fps / 16:9
Audio: English / Dolby Digital Audio / 2.0 / 48 kHz / 192 kbps

[40.9 GB] Скачать / Download