Разгневанный / Рассерженный / L'homme en colere / Jig-saw (Клод Пиното / Claude Pinoteau) MVO (НТВ+) + Sub (Eng) + 2x Original (Eng, Fra) - Скачать

Страна: Франция, Канада
Студия: Cinévidéo, France 3 Cinéma, Les Films Ariane
Жанр: драма, триллер
Год выпуска: 1979
Продолжительность: 01:37:50
Перевод: Профессиональный (многоголосый закадровый) -НТВ+по заказу ТВ6
Субтитры: английские
Оригинальная аудиодорожка 1: английский
Оригинальная аудиодорожка 2: французский
Режиссер: Клод Пиното / Claude Pinoteau
В ролях: Лино Вентура, Энджи Дикинсон, Лоран Мале, Холлис МакЛарен, Дональд Плезенс, Лиза Пеликан, Крис Уиггинс, Р.Х. Томсон, Питер Хикс, Сонни Форбс, Власта Врана, Эдуард Карпентье, Обер Паллачио, Оливье Гуеспин, Пруденс Хэррингтон, Эндрю Семпл
Описание: Ромэн Дюпре приезжает в Канаду, чтобы опознать убитого сына. Но погибший оказывается ему не знаком. Желая найти отпрыска, давно вступившего не на ту дорожку, Ромэн остается в Канаде.
Доп. информация: В скачанный сKGу пользователяviolator99рип, содержащий два оригинала и английские субтитры, добавлена синхронизированнаяНордероммногоголоска из релиза -filmz.pro/link/51246617.
Сэмпл:https://cloud.mail.ru/public/93DY/Nyoyw6xgY
Тип релиза: WEB-DL 720p
Контейнер: MKV
Видео: 3919 Кбит/сек, AVC 1280*716 (16:9), 23,976 кадра/сек, [email protected]
Аудио 1: Русский, 192 Кбит/сек, 48,0 КГц, 16 бит, 2 канала, AC-3
Аудио 2: Английский, 116 Кбит/сек, 48,0 КГц, 2 канала, AAC (LC)
Аудио 3: Французский, 128 Кбит/сек, 48,0 КГц, 2 канала, AAC (LC)
Формат субтитров: softsub (SRT)19.06.18 Торрент-файл перезалит.Устранена аппаратная задержка. Сэмпл и отчет перезалиты.

видео, высокое качество, subs, кино, торрент, на русском, фильм, download, fullhd, бесплатно, скачать, субтитры, оригинал, полная версия, torrent, hd

 Общее
Уникальный идентификатор : 150446993083978602580580629125475005592 (0x712F09726E9E89E53CCE81704EFEF498)
Полное имя : I:\MONAR\Художественные фильмы\Зарубежное кино\Разгневанный (1979) WEB-DL 720p.mkv
Формат : Matroska
Версия формата : Version 4 / Version 2
Размер файла : 2,98 Гбайт
Продолжительность : 1 ч. 37 м.
Общий поток : 4357 Кбит/сек
Название фильма : L'homme en colere (1979)
Дата кодирования : UTC 2018-06-19 19:14:21
Программа кодирования : mkvmerge v24.0.0 ('Beyond The Pale') 64-bit
Библиотека кодирования : libebml v1.3.6 + libmatroska v1.4.9
Видео
Идентификатор : 1
Формат : AVC
Формат/Информация : Advanced Video Codec
Профиль формата : [email protected]
Настройки формата : 2 Ref Frames
Параметр CABAC формата : Нет
Параметр RefFrames формата : 2 кадра
Идентификатор кодека : V_MPEG4/ISO/AVC
Продолжительность : 1 ч. 37 м.
Битрейт : 3919 Кбит/сек
Ширина : 1280 пикселей
Высота : 716 пикселей
Соотношение сторон : 16:9
Режим частоты кадров : Постоянный
Частота кадров : 23,976 кадра/сек
Цветовое пространство : YUV
Субдискретизация насыщенности : 4:2:0
Битовая глубина : 8 бит
Тип развёртки : Прогрессивная
Бит/(Пиксели*Кадры) : 0.178
Размер потока : 2,68 Гбайт (90%)
Язык : English
Default : Да
Forced : Нет
Цветовой диапазон : Limited
Основные цвета : BT.709
Характеристики трансфера : BT.709
Коэффициенты матрицы : BT.709
Аудио #1
Идентификатор : 2
Формат : AC-3
Формат/Информация : Audio Coding 3
Идентификатор кодека : A_AC3
Продолжительность : 1 ч. 37 м.
Вид битрейта : Постоянный
Битрейт : 192 Кбит/сек
Каналы : 2 канала
Расположение каналов : Front: L R
Частота : 48,0 КГц
Частота кадров : 31,250 кадров/сек (1536 SPF)
Битовая глубина : 16 бит
Метод сжатия : С потерями
Размер потока : 134 Мбайт (4%)
Заголовок : MVO
Язык : Russian
ServiceKind/String : Complete Main
Default : Да
Forced : Нет
Аудио #2
Идентификатор : 3
Формат : AAC
Формат/Информация : Advanced Audio Codec
Профиль формата : LC
Идентификатор кодека : A_AAC-2
Продолжительность : 1 ч. 37 м.
Битрейт : 116 Кбит/сек
Каналы : 2 канала
Расположение каналов : Front: L R
Частота : 48,0 КГц
Частота кадров : 46,875 кадров/сек (1024 SPF)
Метод сжатия : С потерями
Размер потока : 81,0 Мбайт (3%)
Заголовок : original
Язык : English
Default : Нет
Forced : Нет
Аудио #3
Идентификатор : 4
Формат : AAC
Формат/Информация : Advanced Audio Codec
Профиль формата : LC
Идентификатор кодека : A_AAC-2
Продолжительность : 1 ч. 37 м.
Битрейт : 128 Кбит/сек
Каналы : 2 канала
Расположение каналов : Front: L R
Частота : 48,0 КГц
Частота кадров : 46,875 кадров/сек (1024 SPF)
Метод сжатия : С потерями
Размер потока : 89,5 Мбайт (3%)
Заголовок : original
Язык : French
Default : Нет
Forced : Нет
Текст
Идентификатор : 5
Формат : UTF-8
Идентификатор кодека : S_TEXT/UTF8
Идентификатор кодека/Информация : UTF-8 Plain Text
Продолжительность : 1 ч. 35 м.
Битрейт : 69 бит/сек
ElementCount : 1148
Размер потока : 48,7 Кбайт (0%)
Заголовок : srt
Язык : English
Default : Нет
Forced : Нет
Меню
00:00:00.000 : en:Chapter 1
00:08:05.000 : en:Chapter 2
00:16:09.000 : en:Chapter 3
00:24:04.000 : en:Chapter 4
00:33:09.000 : en:Chapter 5
00:42:18.000 : en:Chapter 6
00:51:28.000 : en:Chapter 7
00:58:32.000 : en:Chapter 8
01:04:39.000 : en:Chapter 9
01:13:28.000 : en:Chapter 10
01:24:18.000 : en:Chapter 11
01:36:03.000 : en:Chapter 12

[2.98 GB] Скачать / Download