Рим, открытый город / Roma, citta aperta / Rome, Open City (Роберто Росселлини / Roberto Rossellini) 2x MVO + Sub Rus, Eng, Ita + Original Ita - Скачать

Рим, открытый город / Roma, citta aperta / Rome, Open City

Год выпуска: 1945
Страна: Италия
Жанр: драма, военный
Продолжительность: 01:42:38
Перевод: Профессиональный (многоголосый, закадровый) Кармен / ВГТРК
Субтитры: русские, английские, итальянские

Режиссер: Роберто Росселлини / Roberto Rossellini
В ролях: Альдо Фабрици, Анна Маньяни, Марчелло Пальеро, Вито Анникьярико, Нандо Бруно, Харри Файст, Джованна Галлетти, Франческо Гранжаке, Эдуардо Пассарелли, Мария Мичи

Описание: Рим в последние месяцы оккупации. Умирающая немецкая армия отчаянно хранит последние свои оплоты и жестоко расправляется с мятежниками. Но в сердце города уже родился свой отряд Сопротивления. Близок конец войны...

Доп. информация: За русский звук спасибо .

кинопоиск

Качество: BDRip 1080p - sample
Формат: MKV
Видео: MPEG-4 AVC Video 13319 kbps 1452 x 1080 p / 23,976 fps / 16:9 / High Profile 4.1
Аудио: Dolby Digital Audio Russian 2.0 / 48 kHz / 192 kbps [Кармен]
Аудио: Dolby Digital Audio Russian 2.0 / 48 kHz / 192 kbps [ВГТРК]
Аудио: Dolby Digital Audio Italian 2.0 / 48 kHz / 192 kbps
MI
Код:
General
Complete name                    : F:\  -= Фильмы =-\Рим, открытый город (1945. Roma, citta aperta).mkv
Format                           : Matroska
File size                        : 9.97 GiB
Duration                         : 1h 42mn
Overall bit rate                 : 13.9 Mbps
Movie name                       : filmz.pro/link/53922121
Encoded date                     : UTC 2012-01-28 23:08:15
Writing application              : mkvmerge v4.9.1 ('Ich will') сборка от Jul 11 2011 23:53:15
Writing library                  : libebml v1.2.1 + libmatroska v1.1.1
Video
ID                               : 1
Format                           : AVC
Format/Info                      : Advanced Video Codec
Format profile                   : [email protected]
Format settings, CABAC           : Yes
Format settings, ReFrames        : 5 frames
Format settings, GOP             : N=1
Muxing mode                      : Container [email protected]
Codec ID                         : V_MPEG4/ISO/AVC
Duration                         : 1h 42mn
Bit rate                         : 13.3 Mbps
Width                            : 1 452 pixels
Height                           : 1 080 pixels
Display aspect ratio             : 4:3
Frame rate                       : 23.976 fps
Color space                      : YUV
Chroma subsampling               : 4:2:0
Bit depth                        : 8 bits
Scan type                        : Progressive
Bits/(Pixel*Frame)               : 0.354
Stream size                      : 9.36 GiB (94%)
Writing library                  : x264 core 116 r2074 2641b9e
Encoding settings                : cabac=1 / ref=5 / deblock=1:-3:-3 / analyse=0x3:0x113 / me=umh / subme=11 / psy=1 / psy_rd=1.00:0.05 / mixed_ref=1 / me_range=48 / chroma_me=1 / trellis=2 / 8x8dct=1 / cqm=0 / deadzone=21,11 / fast_pskip=0 / chroma_qp_offset=-2 / threads=12 / sliced_threads=0 / nr=0 / decimate=1 / interlaced=0 / bluray_compat=0 / constrained_intra=0 / bframes=6 / b_pyramid=2 / b_adapt=2 / b_bias=0 / direct=3 / weightb=1 / open_gop=0 / weightp=2 / keyint=250 / keyint_min=23 / scenecut=40 / intra_refresh=0 / rc_lookahead=60 / rc=2pass / mbtree=1 / bitrate=13319 / ratetol=1.0 / qcomp=0.70 / qpmin=0 / qpmax=69 / qpstep=4 / cplxblur=20.0 / qblur=0.5 / vbv_maxrate=40000 / vbv_bufsize=30000 / nal_hrd=none / ip_ratio=1.40 / aq=2:0.90
Language                         : English
Audio #1
ID                               : 2
Format                           : AC-3
Format/Info                      : Audio Coding 3
Mode extension                   : CM (complete main)
Codec ID                         : A_AC3
Duration                         : 1h 42mn
Bit rate mode                    : Constant
Bit rate                         : 192 Kbps
Channel(s)                       : 2 channels
Channel positions                : Front: L R
Sampling rate                    : 48.0 KHz
Bit depth                        : 16 bits
Stream size                      : 141 MiB (1%)
Title                            : MVO [Кармен]
Language                         : Russian
Audio #2
ID                               : 3
Format                           : AC-3
Format/Info                      : Audio Coding 3
Mode extension                   : CM (complete main)
Codec ID                         : A_AC3
Duration                         : 1h 42mn
Bit rate mode                    : Constant
Bit rate                         : 192 Kbps
Channel(s)                       : 2 channels
Channel positions                : Front: L R
Sampling rate                    : 48.0 KHz
Bit depth                        : 16 bits
Stream size                      : 141 MiB (1%)
Title                            : MVO [ВГТРК]
Language                         : Russian
Audio #3
ID                               : 4
Format                           : AC-3
Format/Info                      : Audio Coding 3
Mode extension                   : CM (complete main)
Codec ID                         : A_AC3
Duration                         : 1h 42mn
Bit rate mode                    : Constant
Bit rate                         : 192 Kbps
Channel(s)                       : 2 channels
Channel positions                : Front: L R
Sampling rate                    : 48.0 KHz
Bit depth                        : 16 bits
Stream size                      : 141 MiB (1%)
Language                         : Italian
Text #1
ID                               : 5
Format                           : UTF-8
Codec ID                         : S_TEXT/UTF8
Codec ID/Info                    : UTF-8 Plain Text
Language                         : Italian
Text #2
ID                               : 6
Format                           : UTF-8
Codec ID                         : S_TEXT/UTF8
Codec ID/Info                    : UTF-8 Plain Text
Language                         : Russian
Text #3
ID                               : 7
Format                           : UTF-8
Codec ID                         : S_TEXT/UTF8
Codec ID/Info                    : UTF-8 Plain Text
Language                         : English
Menu
00:00:00.000                     : en:Ingegner Giorgio Manfredi
00:07:22.067                     : en:Assalto al forno
00:13:25.221                     : en:Don Pietro
00:18:42.038                     : en:Mille pagine
00:27:44.955                     : en:"Ma Cristo non ci vede?"
00:30:30.829                     : en:Coprifuoco
00:38:51.454                     : en:Senza paura
00:43:07.210                     : en:La scoperta del questore
00:46:24.073                     : en:Il moribondo
00:55:43.423                     : en:Arresti e rivolta
00:58:03.438                     : en:A casa di Marina
01:09:06.309                     : en:informazioni esatte
01:14:39.141                     : en:Interrogatorio
01:21:27.508                     : en:La vie del Signore
01:25:46.016                     : en:Il silenzio di Luigi
01:37:28.134                     : en:Vivere bene

оригинал, субтитры, download, torrent, бесплатно, торрент, fullhd, высокое качество, hd, фильм, на русском, полная версия, кино, subs, скачать, видео

 Rome,.Open.City.1945.BluRay.1080p.AC3.x264-CHD
RELEASE DATE....: 09/20/2011
THEATRE DATE....: 1945
iMDB URL........: http://www.imdb.com/title/tt0038890/
iMDB RATiNG.....: 8.2/10 ( 7,479 votes)
GENRE...........: Drama | War
SOURCE .........: Roma, cittЁ¤ aperta 1945 1080p Blu-ray AVC DD 2.0
ViDEO BiTRATE...: x264 @ 13319 Kbps
FRAME RATE......: 23.976 fps
AUDiO1 .........: Italian AC3 2.0 192Kbps (from LPCM)
RUNTiME.........: 1:42:44 (h:m:s)
ASPECT RATiO....: 1.344 : 1
RESOLUTiON......: 1452 X 1080
SUBTiTLES.......: N/A
FilE SiZE.......: 9.7G
ENCODER.........: [email protected]
x264 [info]: frame I:911 Avg QP:14.56 size:131750
x264 [info]: frame P:27933 Avg QP:15.85 size: 98523
x264 [info]: frame B:118949 Avg QP:18.26 size: 62120

[9.97 GB] Скачать / Download