Рожденный четвертого июля / Born on the Fourth of July (Оливер Стоун / Oliver Stone) Dub + 2x MVO + AVO (Гаврилов) + Sub Rus, Eng + Original Eng - Скачать

Год выпуска: 1989
Страна: США
Жанр: драма, военный, биография
Продолжительность: 2:24:08
Перевод: Профессиональный (полное дублирование)
Перевод: Профессиональный (многоголосый закадровый) С.Р.И.
Перевод: Профессиональный (многоголосый закадровый) Первый Канал*
Перевод: Авторский (одноголосый закадровый) Андрей Гаврилов
Субтитры: русские (), английские
Режиссер: Оливер Стоун / Oliver Stone
В ролях: Том Круз, Рэймонд Дж. Бэрри, Кэролайн Кэва, Джош Эванс, Джэми Талисман, Энн Бобби, Саманта Ларкин, Том Беренджер, Фрэнк Уэйли, Джерри Ливайн, Ричард Пейнбьянко, Роб Камиллетти, Стивен Болдуин, Майкл МакТиг, Ричард Хас, Кевин Харви Морс, Кира Седжвик, Карен Ньюман, Том Сайзмор, Майкл Уинкотт, Майк Старр, Эд Лотер, Дэниэл Болдуин, Брайан Тарантина, Лиз Мур, Дейл Дай, Норма Мур, Стэйси Моусли, Мэл Аллен, Ричард Грузин, Харольд Волошин, Райан Бидл, Шон МакГроу, Брайан Ларкин, Оливер Стоун, Сет Аллен, Шон Стоун, Дженна Фон Ой, Майк Миллер, Эллен Пастернак, Джой Запата, Боб Тиллотсон, Джон Гец, Дэвид Уоршофски, Джейсон Гедрик, Michael Compotaro, Пол Эбботт, Билл Аллен, Уильям Болдуин, Клод Брукс, Майкл Смит Гесс, Джеймс ЛеГро, Уильям Мапотер, Кристофер В. Миллс, Байрон Миннс, Бен Райт, Маркус Флэнеган, Р.Д. Колл, John Falch, Dan Furnad, Fred Geise, Грег Хекберт, Дон Уилсон, Корки Форд, Роки Кэрролл, Сами Честер, Крис Пидерсен, Крис Уокер, Уилли Майнор, Дэвид Херман, Брюс МакВитти, Дэмиен Лик, Дэвид Найдорф, Пол Санчез, Ричард Любин, Норм Уилсон, Питер Бенсон, Серджо Сконьямильо, Билли Нил, Ричард По, Боб Гантон, Вивика А. Фокс, Марк Мозес, Эбби Хоффман, Джейк Уэбер, Рег Э. Кэти, Эди Брикелл, Кери Робак, Джофф Гарза, Джозеф П. Рейди, Erika Geminder, Аманда Дэвис, Бо Старр, Рик Мастерс, John Del Regno, Гэйл Мейрон, Лиза Барнс, Мелинда Ренна, Джейсон Клейн, Уиллем Дефо, Jessica Prunell, Лэйн Р. Дэвис, Эндрю Лоэр, Джонни Пинто, Иван Кэйн, Эд Джапп мл., Michael Sulsona, Корделия Гонзалез, J.R. Nutt, Бегона Плаза, Эдит Диаз, Энтони Пена, Eduardo Ricaro, Тони Фрэнк, Джейн Хейнс, Лили Тейлор, Эльберт Льюис, Питер Кромби, Кевин Дж. МакГуайр, Кен Осборн, Алан Той, Чак Пфайфер, Фрэнк Жирардо, Уильям Уоллес, Чип Муди, Эгил Эй Черри, Филип Амелио, Frank Cavestani, Джимми Л. Паркер, Уильям Дж. Найт, Дэвид Каррьере, Джон Уильям Голт, Джек МакГи, Kristel Otney, Памела С. Нилл, Джоди Лонг, Мишель Хёрст, Коуди Бирд, Джон К. МакГинли, Уэйн Найт, Элизабет Хоффман, Люсинда Дженни, Lorraine Morin-Torre, Энни МакЭнро, Риал Эндрюс, Холли Мари Комбс, Джон Ачорн, Chris Adamec, Ран Баркер, Тереза Белл, Luv Adele Gaerlan, Аллан Хейл, Рон Ковик, Фернандо Лара, Дин Мауро, Марк Миллер, Айс Мрозек, Ник Николсон, Бад Сабатино, Делия Шеппард, Марвин Фрэнк Стоун III, Генри Стрцалковский, Стив Томас, Марк Эдвард Уолтерс
Описание: Фильм, основанный на реальных фактах, рассказывает историю жизни ветерана по имени Рон Ковик. Наивным школьником он записывается добровольцем в армию и, пройдя через ад вьетнамской войны, возвращается домой парализованным калекой. Этот мужественный человек посвящает свою жизнь борьбе с самым страшным врагом человечества — войной.
Доп. информация:
Качество: BDRemux
Формат: MKV
Видео: VC-1 Video 25154 kbps 1080p / 23,976 fps / 16:9 / Advanced Profile 3
Аудио: Dolby Digital Audio Russian 5.1 / 48 kHz / 384 kbps [дубляж]
Аудио: Dolby Digital Audio Russian 5.1 / 48 kHz / 448 kbps [СРИ]
Аудио: Dolby Digital Audio Russian 2.0 / 48 kHz / 192 kbps [1 канал]
Аудио: DTS-HD Master Audio Russian 5.1 / 48 kHz / 3492 kbps / 24-bit (DTS Core: 5.1 / 48 kHz / 1509 kbps / 24-bit) Гаврилов
Аудио: DTS-HD Master Audio English 5.1 / 48 kHz / 4209 kbps / 24-bit (DTS Core: 5.1 / 48 kHz / 1509 kbps / 24-bit)
*мужские роли Никита Прозоровский, Олег Форостенко, Денис Некрасов, Александр Комлев
Цитата:
дорожка с первого канала из личных архивов группы уралмикс by /

высокое качество, download, субтитры, видео, скачать, fullhd, на русском, subs, hd, полная версия, бесплатно, оригинал, torrent, торрент, кино, фильм

General
Unique ID : 221666000693608552580594956274190009709 (0xA6C3519F6C0EFADF8E1F5955F38C456D)
Complete name : J:\Born.on.The.4th.of.July.1989.1080p.Bluray.VC1.Remux.mkv
Format : Matroska
File size : 34.2 GiB
Duration : 2h 24mn
Overall bit rate : 34.0 Mbps
Movie name : Born.on.The.4th.of.July.1989.1080p.Bluray.VC1.Remux
Encoded date : UTC 2011-07-08 21:13:04
Writing application : mkvmerge v4.8.0 ('I Got The...') сборка от May 24 2011 03:12:58
Writing library : libebml v1.2.0 + libmatroska v1.1.0
Video
ID : 1
Format : VC-1
Format profile : [email protected]
Codec ID : WVC1
Codec ID/Hint : Microsoft
Duration : 2h 24mn
Bit rate : 29.1 Mbps
Width : 1 920 pixels
Height : 1 080 pixels
Display aspect ratio : 16:9
Frame rate : 23.976 fps
Chroma subsampling : 4:2:0
Bit depth : 8 bits
Scan type : Progressive
Compression mode : Lossy
Bits/(Pixel*Frame) : 0.586
Stream size : 29.3 GiB (86%)
Title : uralmix
Audio #1
ID : 2
Format : AC-3
Format/Info : Audio Coding 3
Mode extension : CM (complete main)
Codec ID : A_AC3
Duration : 2h 24mn
Bit rate mode : Constant
Bit rate : 384 Kbps
Channel(s) : 6 channels
Channel positions : Front: L C R, Side: L R, LFE
Sampling rate : 48.0 KHz
Bit depth : 16 bits
Compression mode : Lossy
Stream size : 396 MiB (1%)
Title : дубляж
Language : Russian
Audio #2
ID : 3
Format : AC-3
Format/Info : Audio Coding 3
Mode extension : CM (complete main)
Codec ID : A_AC3
Duration : 2h 24mn
Bit rate mode : Constant
Bit rate : 448 Kbps
Channel(s) : 6 channels
Channel positions : Front: L C R, Side: L R, LFE
Sampling rate : 48.0 KHz
Bit depth : 16 bits
Compression mode : Lossy
Stream size : 462 MiB (1%)
Title : Супербит
Language : Russian
Audio #3
ID : 4
Format : AC-3
Format/Info : Audio Coding 3
Mode extension : CM (complete main)
Codec ID : A_AC3
Duration : 2h 24mn
Bit rate mode : Constant
Bit rate : 192 Kbps
Channel(s) : 2 channels
Channel positions : Front: L R
Sampling rate : 48.0 KHz
Bit depth : 16 bits
Compression mode : Lossy
Stream size : 198 MiB (1%)
Title : Первый канал
Language : Russian
Audio #4
ID : 5
Format : DTS
Format/Info : Digital Theater Systems
Format profile : MA / Core
Codec ID : A_DTS
Duration : 2h 24mn
Bit rate mode : Variable
Bit rate : 1 561 Kbps / 1 510 Kbps
Channel(s) : 6 channels
Channel positions : Front: L C R, Side: L R, LFE
Sampling rate : 48.0 KHz
Bit depth : 24 bits
Compression mode : Lossless / Lossy
Title : авторский - Андрей Гаврилов
Language : Russian
Audio #5
ID : 6
Format : DTS
Format/Info : Digital Theater Systems
Format profile : MA / Core
Codec ID : A_DTS
Duration : 2h 24mn
Bit rate mode : Variable
Bit rate : 1 576 Kbps / 1 510 Kbps
Channel(s) : 6 channels
Channel positions : Front: L C R, Side: L R, LFE
Sampling rate : 48.0 KHz
Bit depth : 24 bits
Compression mode : Lossless / Lossy
Language : English
Text #1
ID : 7
Format : UTF-8
Codec ID : S_TEXT/UTF8
Codec ID/Info : UTF-8 Plain Text
Title : Stalk
Language : Russian
Text #2
ID : 8
Format : UTF-8
Codec ID : S_TEXT/UTF8
Codec ID/Info : UTF-8 Plain Text
Title : BD SDH
Language : English
Text #3
ID : 9
Format : UTF-8
Codec ID : S_TEXT/UTF8
Codec ID/Info : UTF-8 Plain Text
Title : HDDVD
Language : English
Menu
00:00:00.000 : en:00:00:00.000
00:16:28.905 : en:00:16:28.905
00:27:36.488 : en:00:27:36.488
00:32:06.758 : en:00:32:06.758
00:37:26.119 : en:00:37:26.119
00:44:53.024 : en:00:44:53.024
00:58:56.074 : en:00:58:56.074
01:08:42.160 : en:01:08:42.160
01:20:22.151 : en:01:20:22.151
01:29:01.336 : en:01:29:01.336
01:33:57.048 : en:01:33:57.048
01:39:29.130 : en:01:39:29.130
01:56:53.965 : en:01:56:53.965
02:05:47.165 : en:02:05:47.165
02:15:07.766 : en:02:15:07.766
02:18:09.281 : en:02:18:09.281

[34.2 GB] Скачать / Download