Серенада солнечной долины / Sun Valley Serenade (Х. Брюс Хамберстоун / H. Bruce Humberstone) Dub (Горького) + MVO + DVO (Культура) + Sub Rus, Eng + Original Eng - Скачать

Страна:США
Студия:Twentieth Century Fox Film Corporation
Жанр: мелодрама, комедия, музыка
Год выпуска: 1941
Продолжительность: 01:26:00
Перевод 1: Профессиональный (дублированный) -Киностудия им. М. Горького
Перевод 2: Профессиональный (многоголосый закадровый) -"Видеобаза"/"Деваль"
Перевод 3: Профессиональный (двухголосый закадровый) -ВГТРК "Культура"
Субтитры:русские(На песни),русские(Полные),английские,английские[SDH]
Оригинальная аудиодорожка:английский
Режиссер: Х. Брюс Хамберстоун / H. Bruce Humberstone
В ролях: Соня Хени, Джон Пейн, Гленн Миллер, Милтон Берл, Линн Бари, Джоан Дэвис, Николас Бразерс, Уильям Б. Дэвидсон, Дороти Дэндридж, Альмира Сешнс...
Описание: Веселая музыкальная комедия, в которой героиня Сони Хени в составе оркестра Глена Миллера отправляется в Солнечную долину. Забавные приключения, комедийные ситуации и великолепные композиции Глена Миллера легли в основу этого фильма, который первоначально был задуман как рекламный ролик для музыкальной темы, но усилиями Брюса Хэмберстона был доведен до размера полнометражного кино. Мистера Морри, владельца горнолыжного курорта в великолепной солнечной долине, для нового сезона ищет модный джазовый оркестр «с именем».
Доп. информация:Исходник любезно предоставилза что ему отдельное и большое спасибо.

Спасибо за рус. дорожку DUB(Советский) xfiles
Спасибо за рус. дорожку MVO AVV_UA
Спасибо за рус. дорожку DVO porhaleks

Sun Valley Serenade_(1941)_720p_WEB-DL_Sample_.mkv

Синхронизация звук. дорожек

За что ему превеликая благодарность

Тип релиза: WEB-DL 720p
Контейнер: MKV
Видео: H.264 / AVC Video / 3 963 Kbps / 992x720 / 23.976 fps / 1:1.378 / [email protected]
Аудио 1:Russian/ Dolby Digital Audio / 2.0 / 48 kHz / 256 kbps -DUBКиностудия им. М. Горького
Аудио 2:Russian/ Dolby Digital Audio / 2.0 / 48 kHz / 224 kbps -MVO"Видеобаза"/"Деваль"
Аудио 3:Russian/ Dolby Digital Audio / 2.0 / 48 kHz / 224 kbps -DVOВГТРК "Культура"
Аудио 4:English/ AAC LC / 2.0 / 48 kHz / 119 kbps
Формат субтитров:softsub (SRT)

download, бесплатно, на русском, полная версия, субтитры, высокое качество, видео, кино, hd, оригинал, subs, торрент, torrent, скачать, фильм, fullhd

General
Unique ID : 190912531271455953227042969039416409659 (0x8FA06A83CA13FC9E8C666839C90D3E3B)
Complete name : I:\111\z_D_Disk\Sun Valley Serenade_(1941)_720p_WEB-DL_.mkv
Format : Matroska
Format version : Version 4 / Version 2
File size : 2.88 GiB
Duration : 1 h 26 min
Overall bit rate : 4 789 kb/s
Encoded date : UTC 2017-05-30 20:28:40
Writing application : mkvmerge v9.8.0 ('Kuglblids') 64bit
Writing library : libebml v1.3.4 + libmatroska v1.4.5
Video
ID : 1
Format : AVC
Format/Info : Advanced Video Codec
Format profile : [email protected]
Format settings, CABAC : No
Format settings, ReFrames : 2 frames
Codec ID : V_MPEG4/ISO/AVC
Duration : 1 h 26 min
Bit rate : 3 963 kb/s
Width : 992 pixels
Height : 720 pixels
Display aspect ratio : 1.378
Frame rate mode : Constant
Frame rate : 23.976 (24000/1001) FPS
Color space : YUV
Chroma subsampling : 4:2:0
Bit depth : 8 bits
Scan type : Progressive
Bits/(Pixel*Frame) : 0.231
Stream size : 2.38 GiB (83%)
Title : Sun Valley Serenade_(1941)_720p_WEB-DL_[Muxed_by_rjhlb777]
Language : English
Default : Yes
Forced : No
Color range : Limited
Color primaries : BT.709
Transfer characteristics : BT.709
Matrix coefficients : BT.709
Audio #1
ID : 2
Format : AC-3
Format/Info : Audio Coding 3
Mode extension : CM (complete main)
Format settings, Endianness : Big
Codec ID : A_AC3
Duration : 1 h 26 min
Bit rate mode : Constant
Bit rate : 256 kb/s
Channel(s) : 2 channels
Channel positions : Front: L R
Sampling rate : 48.0 kHz
Frame rate : 31.250 FPS (1536 spf)
Bit depth : 16 bits
Compression mode : Lossy
Stream size : 157 MiB (5%)
Title : DUB [Советский] (Киностудия им. М. Горького)
Language : Russian
Default : Yes
Forced : No
Audio #2
ID : 3
Format : AC-3
Format/Info : Audio Coding 3
Mode extension : CM (complete main)
Format settings, Endianness : Big
Codec ID : A_AC3
Duration : 1 h 26 min
Bit rate mode : Constant
Bit rate : 224 kb/s
Channel(s) : 2 channels
Channel positions : Front: L R
Sampling rate : 48.0 kHz
Frame rate : 31.250 FPS (1536 spf)
Bit depth : 16 bits
Compression mode : Lossy
Stream size : 138 MiB (5%)
Title : MVO ("Видеобаза"/"Деваль")
Language : Russian
Default : No
Forced : No
Audio #3
ID : 4
Format : AC-3
Format/Info : Audio Coding 3
Mode extension : CM (complete main)
Format settings, Endianness : Big
Codec ID : A_AC3
Duration : 1 h 26 min
Bit rate mode : Constant
Bit rate : 224 kb/s
Channel(s) : 2 channels
Channel positions : Front: L R
Sampling rate : 48.0 kHz
Frame rate : 31.250 FPS (1536 spf)
Bit depth : 16 bits
Compression mode : Lossy
Stream size : 138 MiB (5%)
Title : DVO (ВГТРК "Культура")
Language : Russian
Default : No
Forced : No
Audio #4
ID : 5
Format : AAC
Format/Info : Advanced Audio Codec
Format profile : LC
Codec ID : A_AAC
Duration : 1 h 26 min
Bit rate : 119 kb/s
Channel(s) : 2 channels
Channel positions : Front: L R
Sampling rate : 48.0 kHz
Frame rate : 46.875 FPS (1024 spf)
Compression mode : Lossy
Stream size : 72.9 MiB (2%)
Title : Original Eng
Language : English
Default : No
Forced : No
Text #1
ID : 6
Format : UTF-8
Codec ID : S_TEXT/UTF8
Codec ID/Info : UTF-8 Plain Text
Duration : 1 h 23 min
Bit rate : 15 b/s
Count of elements : 161
Stream size : 9.57 KiB (0%)
Title : RUS [Only Songs]
Language : Russian
Default : Yes
Forced : No
Text #2
ID : 7
Format : UTF-8
Codec ID : S_TEXT/UTF8
Codec ID/Info : UTF-8 Plain Text
Duration : 1 h 25 min
Bit rate : 90 b/s
Count of elements : 903
Stream size : 56.6 KiB (0%)
Title : RUS [Full]
Language : Russian
Default : No
Forced : No
Text #3
ID : 8
Format : UTF-8
Codec ID : S_TEXT/UTF8
Codec ID/Info : UTF-8 Plain Text
Duration : 1 h 24 min
Bit rate : 56 b/s
Count of elements : 778
Stream size : 34.7 KiB (0%)
Title : English
Language : English
Default : No
Forced : No
Text #4
ID : 9
Format : UTF-8
Codec ID : S_TEXT/UTF8
Codec ID/Info : UTF-8 Plain Text
Duration : 1 h 25 min
Bit rate : 71 b/s
Count of elements : 912
Stream size : 44.4 KiB (0%)
Title : English [SDH]
Language : English
Default : No
Forced : No
Menu
00:00:00.000 : en:Chapter 01
00:01:08.068 : en:Chapter 02
00:06:17.669 : en:Chapter 03
00:11:48.583 : en:Chapter 04
00:20:40.114 : en:Chapter 05
00:26:53.821 : en:Chapter 06
00:30:04.761 : en:Chapter 07
00:34:14.218 : en:Chapter 08
00:39:30.242 : en:Chapter 09
00:48:08.551 : en:Chapter 10
00:56:29.176 : en:Chapter 11
00:58:30.922 : en:Chapter 12
01:00:34.170 : en:Chapter 13
01:04:46.088 : en:Chapter 14
01:10:40.317 : en:Chapter 15
01:18:13.770 : en:Chapter 16

[2.88 GB] Скачать / Download