Схватка гигантских монстров: Гамера против Баругона / Gamera vs. Barugon / Daikaijū Kettō: Gamera Tai Barugon (Сигео Танака / Shigeo Tanaka) Sub rus - Скачать

Страна: Япония
Жанр: Фантастика, приключения, дайкайдзю
Год выпуска: 1966
Продолжительность: 01:40:00
Перевод: Субтитры
Субтитры: русские
Оригинальная аудиодорожка: Японский
Режиссер: Сигео Танака / Shigeo Tanaka
В ролях: Кодзиро Хонго, Кёко Энами, Юдзо Хаякава, Такуя Фудзиока, Кодзи Фудзияма, Акира Нацуки, Ёсио Китахара, Итиро Сугай, Бонтаро Миаки
Описание: Группа авантюристов отправляется в Новую Гвинею, в поисках большого и очень дорогого опала. Однако, оказывается, что этот опал - вовсе не камень. Под воздействием инфракрасных лучей из него вылупляется маленький ящер, который быстро вырастает до гигантских размеров и начинает крушить всё вокруг. Имя ему - Баругон. Но незадолго до этого, на Землю вернулась суперчерепаха Гамера, и, возможно, только ей удастся остановить его.
Доп. информация: Перевод команды KaijuKeizer.
Сэмпл:http://www.mediafire.com/?tw19idlrabnxbbq
Тип релиза: BDRip 720p
Контейнер: MKV
Видео: MPEG4 Video (H264); 1280x560; 2.25:1; 5987 Kbps; 29.97 fps;
Аудио: AC3; 2 ch.; 48000Hz; 256 Kbps.
Формат субтитров: softsub (SRT)
Другие фильмы про Гамеру эпохи Сёва
BDRip:
Гамера - filmz.pro/link/53563669
DVDRip:
Гамера - filmz.pro/link/53423672
Гамера против Баругона - filmz.pro/link/53441734
Гамера против Гяоса - filmz.pro/link/53471414
Гамера против Вираса - filmz.pro/link/53521798
Гамера против Гирона - filmz.pro/link/53571076
Гамера против Джайгера - filmz.pro/link/53596992
Гамера против Зигры - filmz.pro/link/53777128
Космический монстр Гамера - filmz.pro/link/53797681

скачать, на русском, фильм, высокое качество, torrent, видео, subs, торрент, кино, fullhd, субтитры, hd, полная версия, оригинал, бесплатно, download

Общее
Уникальный идентификатор : 255065608858507256567048048285925937300 (0xBFE3D9718496FE97918B6301202A9094)
Полное имя : C:\Documents and Settings\Александр\Мои документы\Downloads\Gamera vs Barugon 1966 HD\Gamera vs. Barugon 1966 720p BluRay.mkv
Формат : Matroska
Размер файла : 4,37 Гбайт
Продолжительность : 1 ч. 40 м.
Общий поток : 6245 Кбит/сек
Дата кодирования : UTC 2010-10-07 18:06:48
Программа кодирования : mkvmerge v4.3.0 ('Escape from the Island') built on Sep 5 2010 10:30:51
Библиотека кодирования : libebml v1.0.0 + libmatroska v1.0.0
Видео
Идентификатор : 1
Формат : AVC
Формат/Информация : Advanced Video Codec
Профиль формата : [email protected]
Параметр CABAC формата : Да
Параметр ReFrames формата : 4 кадра
Идентификатор кодека : V_MPEG4/ISO/AVC
Продолжительность : 1 ч. 40 м.
Битрейт : 5987 Кбит/сек
Ширина : 1280 пикс.
Высота : 560 пикс.
Соотношение сторон : 2,25:1
Частота кадров : 29,970 кадр/сек
Цветовое пространство : YUV
Подвыборка цветности : 4:2:0
Битовая глубина : 8 бит
Тип развёртки : Прогрессивная
Бит/(Пиксели*Кадры) : 0.279
Размер потока : 4,11 Гбайт (94%)
Библиотека кодирования : x264 core 105 r1724 b02df7b
Настройки программы : cabac=1 / ref=3 / deblock=1:-1:-1 / analyse=0x3:0x113 / me=hex / subme=7 / psy=1 / psy_rd=1.00:0.15 / mixed_ref=1 / me_range=16 / chroma_me=1 / trellis=1 / 8x8dct=1 / cqm=0 / deadzone=21,11 / fast_pskip=1 / chroma_qp_offset=-3 / threads=6 / sliced_threads=0 / nr=0 / decimate=1 / interlaced=0 / constrained_intra=0 / bframes=3 / b_pyramid=2 / b_adapt=1 / b_bias=0 / direct=1 / weightb=1 / open_gop=0 / weightp=2 / keyint=250 / keyint_min=25 / scenecut=40 / intra_refresh=0 / rc_lookahead=40 / rc=2pass / mbtree=1 / bitrate=5987 / ratetol=1.0 / qcomp=0.60 / qpmin=10 / qpmax=51 / qpstep=4 / cplxblur=20.0 / qblur=0.5 / ip_ratio=1.40 / aq=1:1.00
Аудио
Идентификатор : 2
Формат : AC-3
Формат/Информация : Audio Coding 3
Расширение режима : CM (complete main)
Идентификатор кодека : A_AC3
Продолжительность : 1 ч. 40 м.
Вид битрейта : Постоянный
Битрейт : 256 Кбит/сек
Каналы : 2 канала
Расположение каналов : Front: L R
Частота : 48,0 КГц
Битовая глубина : 16 бит
Метод сжатия : С потерями
Размер потока : 184 Мбайт (4%)
Язык : Japanese
Меню
00:00:00.000 : en:00:00:00.000
00:05:09.809 : en:00:05:09.809
00:09:40.447 : en:00:09:40.447
00:16:29.822 : en:00:16:29.822
00:18:32.144 : en:00:18:32.144
00:27:30.916 : en:00:27:30.916
00:34:53.591 : en:00:34:53.591
00:40:59.123 : en:00:40:59.123
00:43:55.500 : en:00:43:55.500
00:47:33.017 : en:00:47:33.017
00:50:10.975 : en:00:50:10.975
00:53:37.548 : en:00:53:37.548
00:56:25.182 : en:00:56:25.182
00:59:40.510 : en:00:59:40.510
01:04:50.887 : en:01:04:50.887
01:07:32.715 : en:01:07:32.715
01:13:27.169 : en:01:13:27.169
01:14:46.015 : en:01:14:46.015
01:20:43.472 : en:01:20:43.472
01:26:49.037 : en:01:26:49.037
01:31:15.470 : en:01:31:15.470
01:35:07.702 : en:01:35:07.702

[4.37 GB] Скачать / Download