Сирокко / Sirocco (Кертис Бернхардт / Curtis Bernhardt) MVO + Original Eng + Sub Eng - Скачать

Год выпуска:1951
Страна:США
Жанр:драма, боевик
Продолжительность:01:38:40
Перевод:Профессиональный (многоголосый закадровый)
Оригинальная аудиодорожка:Английская
Субтитры:Английские

Режиссер:Кертис Бернхардт / Curtis Bernhardt
В ролях:Хамфри Богарт, Марта Торен, Ли Дж. Кобб, Эверет Слоун, Джералд Мор, Зеро Мостел, Ник Дэннис, Онслоу Стивенс, Людвиг Донат, Дэвид Бонд

Описание:
Действие происходит в 1925 году в Дамаске, где идет война между сирийскими повстанцами и французскими войсками. Гарри Смит — аморальный американский торговец оружием, продает оружие арабским мятежникам в Дамаске, пытающимся свергнуть французский протекторат. Однажды в ресторане он знакомится с Виолеттой, подругой шефа французской разведки полковника Феру, который хочет встретится для переговоров с лидером сирийцев Эмиром Хассаном. Феру вынуждает Смита устроить ему встречу с Хассаном.

| |Сэмпл

Качество:WEB-DL 1080p (SbR)
Контейнер:MKV
Видео:AVC (x264), 1920x1080 (1.37:1), 23.976 fps, 14904 kbps
Аудио 1:Русский AC3 2.0, 48 kHz, 192 kbps
Аудио 2:Английский EAC3 2.0, 48 kHz, 224 kbps

download, на русском, видео, фильм, торрент, бесплатно, высокое качество, субтитры, полная версия, torrent, subs, скачать, кино, fullhd, оригинал, hd

General
Unique ID : 212749153899512856283096070967293415152 (0xA00DFF221531669FAE21CDEA914C8EF0)
Complete name : Sirocco.1951.1080p.WEB-DL.DD2.0.H.264-SbR.mkv
Format : Matroska
Format version : Version 2
File size : 10.6 GiB
Duration : 1 h 38 min
Overall bit rate mode : Variable
Overall bit rate : 15.3 Mb/s
Movie name : Sirocco / Сирокко (1951) – RuTracker
Encoded date : UTC 2016-12-17 09:40:24
Writing application : mkvmerge v9.6.0 ('Slave To Your Mind') 64bit
Writing library : libebml v1.3.4 + libmatroska v1.4.5
Cover : Yes
Attachments : cover.jpg
Video
ID : 1
Format : AVC
Format/Info : Advanced Video Codec
Format profile : [email protected]
Format settings, CABAC : Yes
Format settings, ReFrames : 4 frames
Codec ID : V_MPEG4/ISO/AVC
Duration : 1 h 38 min
Bit rate mode : Variable
Bit rate : 15.0 Mb/s
Width : 1 920 pixels
Height : 1 080 pixels
Display aspect ratio : 16:9
Frame rate mode : Constant
Frame rate : 23.976 (24000/1001) FPS
Color space : YUV
Chroma subsampling : 4:2:0
Bit depth : 8 bits
Scan type : Progressive
Bits/(Pixel*Frame) : 0.302
Stream size : 10.3 GiB (97%)
Title : Sirocco.1951.1080p.WEB-DL.DD+2.0.H.264-SbR
Writing library : x264 core 148 r2623 d5b2374
Encoding settings : cabac=1 / ref=4 / deblock=1:-1:-1 / analyse=0x3:0x133 / me=umh / subme=9 / psy=1 / psy_rd=1.00:0.15 / mixed_ref=1 / me_range=24 / chroma_me=1 / trellis=2 / 8x8dct=1 / cqm=0 / deadzone=21,11 / fast_pskip=1 / chroma_qp_offset=-3 / threads=34 / lookahead_threads=5 / sliced_threads=0 / nr=150 / decimate=1 / interlaced=0 / bluray_compat=0 / constrained_intra=0 / bframes=8 / b_pyramid=2 / b_adapt=2 / b_bias=0 / direct=3 / weightb=1 / open_gop=0 / weightp=2 / keyint=120 / keyint_min=61 / scenecut=0 / intra_refresh=0 / rc_lookahead=120 / rc=crf / mbtree=1 / crf=18.0 / qcomp=0.60 / qpmin=0 / qpmax=69 / qpstep=4 / vbv_maxrate=15000 / vbv_bufsize=31250 / crf_max=0.0 / nal_hrd=vbr / filler=0 / ip_ratio=1.40 / aq=3:1.00
Language : English
Default : Yes
Forced : No
Color range : Limited
Color primaries : BT.709
Transfer characteristics : BT.709
Matrix coefficients : BT.709
Audio #1
ID : 2
Format : AC-3
Format/Info : Audio Coding 3
Mode extension : CM (complete main)
Format settings, Endianness : Big
Codec ID : A_AC3
Duration : 1 h 38 min
Bit rate mode : Constant
Bit rate : 192 kb/s
Channel(s) : 2 channels
Channel positions : Front: L R
Sampling rate : 48.0 kHz
Frame rate : 31.250 FPS (1536 spf)
Compression mode : Lossy
Stream size : 135 MiB (1%)
Title : MVO
Language : Russian
Default : Yes
Forced : No
Audio #2
ID : 3
Format : E-AC-3
Format/Info : Audio Coding 3
Format settings, Endianness : Big
Codec ID : A_EAC3
Duration : 1 h 38 min
Bit rate mode : Constant
Bit rate : 224 kb/s
Channel(s) : 2 channels
Channel positions : Front: L R
Sampling rate : 48.0 kHz
Frame rate : 187.500 FPS (256 spf)
Compression mode : Lossy
Stream size : 158 MiB (1%)
Title : Original
Language : English
Default : No
Forced : No
Text #1
ID : 4
Format : UTF-8
Codec ID : S_TEXT/UTF8
Codec ID/Info : UTF-8 Plain Text
Duration : 1 h 35 min
Bit rate : 57 b/s
Count of elements : 1443
Stream size : 40.3 KiB (0%)
Language : English
Default : No
Forced : No
Text #2
ID : 5
Format : UTF-8
Codec ID : S_TEXT/UTF8
Codec ID/Info : UTF-8 Plain Text
Duration : 1 h 37 min
Bit rate : 60 b/s
Count of elements : 1599
Stream size : 43.1 KiB (0%)
Title : SDH
Language : English
Default : No
Forced : No

[10.56 GB] Скачать / Download