Скоростной спуск / Downhill Racer (Майкл Ритчи / Michael Ritchie) MVO + AVO (А. Дольский) + Sub Eng + Original Eng - Скачать

Criterion CollectionСтрана: США
Студия: Paramount Pictures
Жанр: спортивная драма
Год выпуска: 1969
Продолжительность: 01:41:53
Перевод 1: Профессиональный (многоголосый закадровый)
Перевод 2: Авторский (одноголосый закадровый)А. Дольский
Субтитры: английские SDH
Оригинальная аудиодорожка: английский
Режиссер: Майкл Ритчи / Michael Ritchie
В ролях: Роберт Редфорд, Джин Хэкмен, Камилла Спарв, Карл Михаэль Фоглер, Джим МакМуллан, Кэтлин Краули, Дэбни Коулмен, Кеннет Кирк, Орен Стивенс, Джерри Декстер, Уолтер Страуд, Кэрол Карле, Рип МакМанус, Том Дж. Кирк, Хейни Шулер, Арнольд Альпигер, Натали Вуд и др.
Описание: В своей дебютной спортивной драме, Майкл Ритчи показывает жестокий мир олимпийского лыжного спорта. Чтобы попасть на самый верх, герою Рэдфорда приходится много и тяжело работать. Но спортивная слава мимолетна, и плата за нее — одиночество…


СэмплIMDBКинопоиск


Доп. информация: В связи с тем, что единственный перевод, который был на трекере – многоголоска с раздачиAlec Storm, не очень хорошего качества (присутствует фоновый шум), был заказан авторский перевод Андрея Дольского.
Спонсоры перевода -dmyan, porvaliparus
Тип релиза: BDRemux 1080p
Контейнер: MKV
Видео: AVC / 1920x1080 / 16:9 / 23.976fps / 34957Kbps / [email protected]
Аудио 1 Rus: AC3 / 48.0 KHz / 2.0 / 192kbps / MVO
Аудио 2 Rus: FLAC / 48.0 KHz / 1.0 / 631kbps / 24bit / AVO / А. Дольский
Аудио 3 Eng: FLAC / 48.0 KHz / 1.0 / 599kbps / 24bit
Формат субтитров: softsub (SRT)

оригинал, торрент, бесплатно, subs, download, субтитры, torrent, видео, скачать, полная версия, fullhd, кино, на русском, высокое качество, фильм, hd

Общее
Уникальный идентификатор : 232164407731379152208233466507112440938 (0xAEA93D0D7D3D14D199655A0CE2A3646A)
Полное имя : D:\_Torrent\porvaliparus\Downhill.Racer.1969.BDRemux.1080p.mkv
Формат : Matroska
Версия формата : Version 4 / Version 2
Размер файла : 25,9 Гбайт
Продолжительность : 1 ч. 41 м.
Режим общего битрейта : Переменный
Общий поток : 36,4 Мбит/сек
Название фильма : Downhill.Racer.1969.BDRemux.1080p-porvaliparus
Дата кодирования : UTC 2017-05-23 23:51:50
Программа кодирования : mkvmerge v11.0.0 ('Alive') 64bit
Библиотека кодирования : libebml v1.3.4 + libmatroska v1.4.5
Видео
Идентификатор : 1
Формат : AVC
Формат/Информация : Advanced Video Codec
Профиль формата : [email protected]
Параметр CABAC формата : Да
Параметр ReFrames формата : 4 кадра
Идентификатор кодека : V_MPEG4/ISO/AVC
Продолжительность : 1 ч. 41 м.
Вид битрейта : Переменный
Битрейт : 34,9 Мбит/сек
Максимальный битрейт : 37,0 Мбит/сек
Ширина : 1920 пикселей
Высота : 1080 пикселей
Соотношение сторон : 16:9
Режим частоты кадров : Постоянный
Частота кадров : 23,976 (24000/1001) кадра/сек
Цветовое пространство : YUV
Субдискретизация насыщенности : 4:2:0
Битовая глубина : 8 бит
Тип развёртки : Прогрессивная
Бит/(Пиксели*Кадры) : 0.703
Размер потока : 24,9 Гбайт (96%)
Заголовок : Downhill.Racer.1969.BDRemux.1080p
Default : Да
Forced : Нет
Аудио #1
Идентификатор : 2
Формат : AC-3
Формат/Информация : Audio Coding 3
Параметр Endianness формата : Big
Идентификатор кодека : A_AC3
Продолжительность : 1 ч. 41 м.
Вид битрейта : Постоянный
Битрейт : 192 Кбит/сек
Каналы : 2 канала
Расположение каналов : Front: L R
Частота : 48,0 КГц
Частота кадров : 31,250 кадров/сек (1536 spf)
Битовая глубина : 16 бит
Метод сжатия : С потерями
Размер потока : 140 Мбайт (1%)
Заголовок : MVO
Язык : Russian
ServiceKind/String : Complete Main
Default : Да
Forced : Нет
Аудио #2
Идентификатор : 3
Формат : FLAC
Формат/Информация : Free Lossless Audio Codec
Идентификатор кодека : A_FLAC
Продолжительность : 1 ч. 41 м.
Вид битрейта : Переменный
Битрейт : 631 Кбит/сек
Каналы : 1 канал
Расположение каналов : Front: C
Частота : 48,0 КГц
Частота кадров : 11,719 кадров/сек (4096 spf)
Битовая глубина : 24 бит
Размер потока : 460 Мбайт (2%)
Заголовок : AVO [А. Дольский]
Библиотека кодирования : libFLAC 1.2.1 (UTC 2007-09-17)
Язык : Russian
Default : Нет
Forced : Нет
Аудио #3
Идентификатор : 4
Формат : FLAC
Формат/Информация : Free Lossless Audio Codec
Идентификатор кодека : A_FLAC
Продолжительность : 1 ч. 41 м.
Вид битрейта : Переменный
Битрейт : 599 Кбит/сек
Каналы : 1 канал
Расположение каналов : Front: C
Частота : 48,0 КГц
Частота кадров : 11,719 кадров/сек (4096 spf)
Битовая глубина : 24 бит
Размер потока : 436 Мбайт (2%)
Библиотека кодирования : libFLAC 1.2.1 (UTC 2007-09-17)
Язык : English
Default : Нет
Forced : Нет
Текст
Идентификатор : 5
Формат : UTF-8
Идентификатор кодека : S_TEXT/UTF8
Идентификатор кодека/Информация : UTF-8 Plain Text
Продолжительность : 1 ч. 40 м.
Битрейт : 54 бит/сек
ElementCount : 1027
Размер потока : 40,1 Кбайт (0%)
Язык : English
Default : Нет
Forced : Нет
Меню
00:00:00.000 : en:00:00:00.000
00:06:06.032 : en:00:06:06.032
00:16:45.254 : en:00:16:45.254
00:25:15.180 : en:00:25:15.180
00:31:54.371 : en:00:31:54.371
00:41:33.700 : en:00:41:33.700
00:52:53.879 : en:00:52:53.879
01:01:00.782 : en:01:01:00.782
01:07:06.314 : en:01:07:06.314
01:15:33.446 : en:01:15:33.446
01:24:49.626 : en:01:24:49.626
01:38:02.543 : en:01:38:02.543
DISC INFO:
Disc Title: Downhill Racer 1969 Criterion Collection Blu-ray 1080p AVC LPCM 1.0
Disc Size: 47 128 817 710 bytes
Protection: AACS
BD-Java: Yes
BDInfo: 0.5.8
PLAYLIST REPORT:
Name: 00001.MPLS
Length: 1:41:53.148 (h:m:s.ms)
Size: 29 843 466 240 bytes
Total Bitrate: 39,05 Mbps
VIDEO:
Codec Bitrate Description
----- ------- -----------
MPEG-4 AVC Video 34957 kbps 1080p / 23,976 fps / 16:9 / High Profile 4.1
AUDIO:
Codec Language Bitrate Description
----- -------- ------- -----------
LPCM Audio English 1152 kbps 1.0 / 48 kHz / 1152 kbps / 24-bit
SUBTITLES:
Codec Language Bitrate Description
----- -------- ------- -----------
Presentation Graphics English 43,180 kbps

[25.89 GB] Скачать / Download