Стрела. Абсолютное оружие / Choi-jong-byeong-gi Hwal / War of the Arrows (Ким Хан Мин / Kim Han Min) DVO GREEN TEA Sub Rus+Eng - Скачать


Страна: Корея Южная
Жанр: боевик, история
Год выпуска: 2011
Продолжительность: 02:02:13

Перевод: Любительский (двухголосый закадровый) [Алекс Викке, pandora2177]
Субтитры: английские,русские
Оригинальная аудиодорожка: Корейская

Режиссер: Ким Хан Мин / Kim Han Min

В ролях: Пак Хэ Иль, Рю Сынг Рён, Мун Чхе Вон, Ким Му Ёль

Описание: В 1636 году полчища манчжуров пришли на земли государства Чосон, неся с собой смерть и разорение. Во время нападения на одну из деревень враги взяли в плен Ча Ин, юную сестру лучника Нам И, и ее жениха Со Гуна. Отважный герой решает во что бы то ни стало отыскать родных и спасти их от незавидной доли рабов в чужой стране. С этой целью он, повесив на спину свой верный лук, доставшийся ему от отца, и колчан со стрелами, отправляется в Китай, преследуя отряд, напавший на его родную деревню. Вскоре слухи о выдающимся лучнике, не знающем поражения, достигают манчжурского войска. Поймать и обезвредить неуловимого Нам И поручают полководцу Джушинта и его людям.

СЭМПЛ:http://multi-up.com/666267

Тип релиза: BDRip 1080p
Контейнер: MKV
Видео: MPEG4 Video (H264) 1920x816 23.97fps 10000 Kbps
Аудио: |RUS| Dolby AC3 48000Hz6 каналов448 Kbps
Аудио 2: |KOR|DTS 48000Hz 6ch 1510 Kbps
Формат субтитров: softsub (SRT)

субтитры, subs, высокое качество, бесплатно, fullhd, видео, полная версия, скачать, download, на русском, кино, hd, фильм, торрент, torrent, оригинал

Format : Matroska
Format version : Version 2
File size : 10.2 GiB
Duration : 2h 2mn
Overall bit rate : 12.0 Mbps
Movie name : Стрела. Абсолютное оружие \ Choi-jong-byeong-gi Hwal \ War of the Arrows (2011) BDRip 1080p @ nextDred
Encoded date : UTC 2012-03-11 20:15:19
Writing application : mkvmerge v5.3.0 ('I could have danced') built on Feb 9 2012 10:38:07
Writing library : libebml v1.2.3 + libmatroska v1.3.0
Video
ID : 1
Format : AVC
Format/Info : Advanced Video Codec
Format profile : [email protected]
Format settings, CABAC : Yes
Format settings, ReFrames : 4 frames
Codec ID : V_MPEG4/ISO/AVC
Duration : 2h 2mn
Bit rate : 10 000 Kbps
Width : 1 920 pixels
Height : 816 pixels
Display aspect ratio : 2.35:1
Frame rate : 23.976 fps
Color space : YUV
Chroma subsampling : 4:2:0
Bit depth : 8 bits
Scan type : Progressive
Bits/(Pixel*Frame) : 0.266
Stream size : 8.34 GiB (82%)
Title : Стрела. Абсолютное оружие \ Choi-jong-byeong-gi Hwal \ War of the Arrows (2011) BDRip 1080p
Writing library : x264 core 115 r1995 c1e60b9
Encoding settings : cabac=1 / ref=4 / deblock=1:-3:-3 / analyse=0x3:0x113 / me=umh / subme=10 / psy=1 / psy_rd=1.00:0.15 / mixed_ref=1 / me_range=32 / chroma_me=1 / trellis=2 / 8x8dct=1 / cqm=0 / deadzone=21,11 / fast_pskip=0 / chroma_qp_offset=-3 / threads=9 / sliced_threads=0 / nr=0 / decimate=1 / interlaced=0 / bluray_compat=0 / constrained_intra=0 / bframes=6 / b_pyramid=2 / b_adapt=2 / b_bias=0 / direct=3 / weightb=1 / open_gop=0 / weightp=2 / keyint=250 / keyint_min=23 / scenecut=40 / intra_refresh=0 / rc_lookahead=50 / rc=2pass / mbtree=1 / bitrate=10000 / ratetol=1.0 / qcomp=0.60 / qpmin=0 / qpmax=69 / qpstep=4 / cplxblur=20.0 / qblur=0.5 / ip_ratio=1.40 / aq=1:0.80
Language : Korean
Default : Yes
Forced : No
Audio #1
ID : 2
Format : DTS
Format/Info : Digital Theater Systems
Codec ID : A_DTS
Duration : 2h 2mn
Bit rate mode : Constant
Bit rate : 1 510 Kbps
Channel(s) : 6 channels
Channel positions : Front: L C R, Side: L R, LFE
Sampling rate : 48.0 KHz
Bit depth : 24 bits
Compression mode : Lossy
Stream size : 1.29 GiB (13%)
Language : Korean
Default : No
Forced : No
Audio #2
ID : 4
Format : AC-3
Format/Info : Audio Coding 3
Mode extension : CM (complete main)
Codec ID : A_AC3
Duration : 2h 2mn
Bit rate mode : Constant
Bit rate : 448 Kbps
Channel(s) : 6 channels
Channel positions : Front: L C R, Side: L R, LFE
Sampling rate : 48.0 KHz
Bit depth : 16 bits
Compression mode : Lossy
Stream size : 392 MiB (4%)
Title : DVO - GREEN TEA
Language : Russian
Default : Yes
Forced : No
Text #1
ID : 3
Format : UTF-8
Codec ID : S_TEXT/UTF8
Codec ID/Info : UTF-8 Plain Text
Language : English
Default : No
Forced : No
Text #2
ID : 5
Format : UTF-8
Codec ID : S_TEXT/UTF8
Codec ID/Info : UTF-8 Plain Text
Language : Russian
Default : Yes
Forced : No
Menu
00:00:00.000 : en:00:00:00.000
00:06:44.154 : en:00:06:44.154
00:10:35.635 : en:00:10:35.635
00:15:49.991 : en:00:15:49.991
00:21:14.273 : en:00:21:14.273
00:27:15.676 : en:00:27:15.676
00:33:40.977 : en:00:33:40.977
00:41:32.573 : en:00:41:32.573
00:48:50.094 : en:00:48:50.094
00:54:07.411 : en:00:54:07.411
01:04:06.009 : en:01:04:06.009
01:11:16.314 : en:01:11:16.314
01:19:31.433 : en:01:19:31.433
01:26:06.536 : en:01:26:06.536
01:32:53.443 : en:01:32:53.443
01:38:57.723 : en:01:38:57.723
01:47:06.128 : en:01:47:06.128
01:58:28.977 : en:01:58:28.977
СПАСИБО: Bermud_Bermud за предоставление звуковой дороги, Алекс Викке, pandora2177 - за озвучивание и Betrayal - за перевод

[10.21 GB] Скачать / Download