Сыграй мне перед смертью / Play Misty for Me (Клинт Иствуд / Clint Eastwood) Dub + 2х MVO + Original Eng + Sub Rus, Eng - Скачать

Тип релиза: BDRip 720p[ Play Misty for Me 1971 1080p Blu-ray AVC DTS-HD MA 2.0-PCH]
Контейнер: MKV
Видео: AVC, 1280x694 (16:9), 10330 kbps, 23,976 fps, 0,485 bpp
Аудио №1:русский / DTS / 2.0 / 48 kHz / 755 kbps / 24 bit|Blu-ray EUR|
Аудио №2:русский / AC3 / 2.0 / 48 kHz / 192 kbps / 16 bit|DVD Classic|
Аудио №3:русский / AC3 / 2.0 / 48 kHz / 192 kbps / 16 bit|Первый канал|
Аудио №4:английский / DTS / 2.0 / 48 kHz / 1510 kbps / 24 bit
Навигация по главам:есть
Формат субтитров: softsub (SRT)
Цитата:
  • Обложка by HQCLUB.

на русском, видео, download, кино, высокое качество, subs, фильм, torrent, скачать, fullhd, субтитры, оригинал, hd, торрент, бесплатно, полная версия

Код:
---[Information] [11.08.2014 7:26:45] x264 [info]: frame I:935 Avg QP:16.00 size:135044
---[Information] [11.08.2014 7:26:45] x264 [info]: frame P:27265 Avg QP:17.00 size: 82021
---[Information] [11.08.2014 7:26:45] x264 [info]: frame B:118644 Avg QP:19.08 size: 48337
---[Information] [11.08.2014 7:26:45] x264 [info]: consecutive B-frames: 1.0% 0.7% 3.1% 9.2% 15.5% 61.3% 5.9% 1.5% 0.9% 0.7% 0.3%
Код:
Format : Matroska
Format version : Version 4 / Version 2
File size : 9.44 GiB
Duration : 1h 42mn
Overall bit rate : 13.2 Mbps
Encoded date : UTC 2014-08-11 06:45:31
Writing application : mkvmerge v6.8.0 ('Theme for Great Cities') 64bit built on Mar 2 2014 21:34:26
Writing library : libebml v1.3.0 libmatroska v1.4.1
Video
ID : 1
Format : AVC
Format/Info : Advanced Video Codec
Format profile : [email protected]
Format settings, CABAC : Yes
Format settings, ReFrames : 9 frames
Codec ID : V_MPEG4/ISO/AVC
Duration : 1h 42mn
Bit rate : 10.3 Mbps
Width : 1 280 pixels
Height : 694 pixels
Display aspect ratio : 16:9
Frame rate : 23.976 fps
Color space : YUV
Chroma subsampling : 4:2:0
Bit depth : 8 bits
Scan type : Progressive
Bits/(Pixel*Frame) : 0.485
Stream size : 7.37 GiB (78%)
Writing library : x264 core 142 r2453kMod ea0ca51
Encoding settings : cabac=1 / ref=9 / deblock=1:-3:-3 / analyse=0x3:0x113 / me=umh / subme=10 / psy=1 / fade_compensate=0.00 / psy_rd=1.00:0.00 / mixed_ref=1 / me_range=48 / chroma_me=1 / trellis=2 / 8x8dct=1 / cqm=0 / deadzone=21,11 / fast_pskip=0 / chroma_qp_offset=-2 / threads=6 / lookahead_threads=1 / sliced_threads=0 / nr=0 / decimate=0 / interlaced=0 / bluray_compat=0 / constrained_intra=0 / fgo=0 / bframes=10 / b_pyramid=2 / b_adapt=2 / b_bias=0 / direct=3 / weightb=1 / open_gop=0 / weightp=2 / keyint=240 / keyint_min=23 / scenecut=40 / intra_refresh=0 / rc_lookahead=60 / rc=crf / mbtree=0 / crf=16.6000 / qcomp=0.70 / qpmin=0 / qpmax=69 / qpstep=4 / vbv_maxrate=62500 / vbv_bufsize=78125 / crf_max=0.0 / nal_hrd=none / filler=0 / ip_ratio=1.40 / pb_ratio=1.30 / aq=1:0.75
Language : English
Matrix coefficients : BT.709
Audio #1
ID : 2
Format : DTS
Format/Info : Digital Theater Systems
Codec ID : A_DTS
Duration : 1h 42mn
Bit rate mode : Constant
Bit rate : 755 Kbps
Channel(s) : 2 channels
Channel positions : Front: L R
Sampling rate : 48.0 KHz
Bit depth : 24 bits
Compression mode : Lossy
Stream size : 551 MiB (6%)
Title : Blu-ray EUR
Language : Russian
Audio #2
ID : 3
Format : AC-3
Format/Info : Audio Coding 3
Mode extension : CM (complete main)
Codec ID : A_AC3
Duration : 1h 42mn
Bit rate mode : Constant
Bit rate : 192 Kbps
Channel(s) : 2 channels
Channel positions : Front: L R
Sampling rate : 48.0 KHz
Bit depth : 16 bits
Compression mode : Lossy
Stream size : 140 MiB (1%)
Title : DVD Classic
Language : Russian
Audio #3
ID : 4
Format : AC-3
Format/Info : Audio Coding 3
Mode extension : CM (complete main)
Codec ID : A_AC3
Duration : 1h 42mn
Bit rate mode : Constant
Bit rate : 192 Kbps
Channel(s) : 2 channels
Channel positions : Front: L R
Sampling rate : 48.0 KHz
Bit depth : 16 bits
Compression mode : Lossy
Stream size : 140 MiB (1%)
Title : Первый канал
Language : Russian
Audio #4
ID : 5
Format : DTS
Format/Info : Digital Theater Systems
Codec ID : A_DTS
Duration : 1h 42mn
Bit rate mode : Constant
Bit rate : 1 510 Kbps
Channel(s) : 2 channels
Channel positions : Front: L R
Sampling rate : 48.0 KHz
Bit depth : 24 bits
Compression mode : Lossy
Stream size : 1.08 GiB (11%)
Language : English
Text #1
ID : 6
Format : UTF-8
Codec ID : S_TEXT/UTF8
Codec ID/Info : UTF-8 Plain Text
Title : Forced
Language : Russian
Text #2
ID : 7
Format : UTF-8
Codec ID : S_TEXT/UTF8
Codec ID/Info : UTF-8 Plain Text
Language : Russian
Text #3
ID : 8
Format : UTF-8
Codec ID : S_TEXT/UTF8
Codec ID/Info : UTF-8 Plain Text
Title : Full
Language : English
Menu
00:00:00.000 : en:Chapter 01
00:05:02.010 : en:Chapter 02
00:09:36.117 : en:Chapter 03
00:15:52.576 : en:Chapter 04
00:19:25.497 : en:Chapter 05
00:27:48.083 : en:Chapter 06
00:31:05.488 : en:Chapter 07
00:42:28.837 : en:Chapter 08
00:51:36.843 : en:Chapter 09
00:56:19.793 : en:Chapter 10
01:01:01.032 : en:Chapter 11
01:02:32.582 : en:Chapter 12
01:07:34.842 : en:Chapter 13
01:13:17.684 : en:Chapter 14
01:19:46.531 : en:Chapter 15
01:27:30.995 : en:Chapter 16
01:29:42.502 : en:Chapter 17
01:41:28.040 : en:Chapter 18

[9.44 GB] Скачать / Download