Сыновья Кэти Элдер / The Sons of Katie Elder (Генри Хэтэуэй / Henry Hathaway) MVO + 2x VO + Sub Rus, Eng + Original Eng - Скачать

Страна: США
Жанр: вестерн
Год выпуска: 1965
Продолжительность: 02:01:48

Перевод 1: Профессиональный (многоголосый закадровый) Paramount Channel
Перевод 2: Одноголосый закадровый Jack Action
Перевод 3: Одноголосый закадровый
Субтитры: русские, английские
Оригинальная аудиодорожка: английский

Режиссер: Генри Хэтэуэй / Henry Hathaway

В ролях: Джон Уэйн, Дин Мартин, Марта Хайер, Майкл Андерсон мл., Эрл Холлиман, Джереми Слейт, Джеймс Грегори, Пол Фикс, Джордж Кеннеди, Деннис Хоппер

Описание:
После долгого отсутствия, грозный ганфайтер и старший из четырех сыновей Кэти Элдер, Джон, прибывает в свой родной городок в Техасе, на похороны матери. Здесь он узнает, что их ранчо продано, отец убит при очень странных обстоятельствах, а мать последнее время еле сводила концы с концами. Всё говорит о том, что в этом замешан местный предприниматель, владелец оружейной мануфактуры Могран Хэстингс. Вместе с братьями Джон хочет добраться до истины, но на этот раз он пытается сделать это без своего любимого помощника - револьвера.

Сэмпл:Скачать

Тип релиза: HDTVRip 720p
Контейнер: MKV

Видео: 1280x546 (2.35:1); 4 000 Kbps; 23.976 fps; 0.239 bpp
Аудио 1: Russian; AC3; 48.0 KHz; 2ch; 192 Kbps MVO Paramount Channel
Аудио 2: Russian; AC3; 48.0 KHz; 2ch; 192 Kbps VO Jack Action
Аудио 3: Russian; AC3; 48.0 KHz; 2ch; 192 Kbps VO
Аудио 4: English; AC3; 48.0 KHz; 2ch; 384 Kbps
Формат субтитров: softsub (SRT)

download, бесплатно, высокое качество, торрент, torrent, видео, subs, скачать, субтитры, fullhd, кино, оригинал, фильм, на русском, полная версия, hd

Format : Matroska
Format version : Version 4 / Version 2
File size : 4.22 GiB
Duration : 2h 1mn
Overall bit rate : 4 962 Kbps
Movie name : The.Sons.of.Katie.Elder.1965.720p.HDTV.x264.DD5.1-FGT
Encoded date : UTC 2016-07-21 11:21:11
Writing application : mkvmerge v8.3.0 ('Over the Horizon') 64bit
Writing library : libebml v1.3.1 + libmatroska v1.4.2
Attachments : poster.jpg
Video
ID : 1
Format : AVC
Format/Info : Advanced Video Codec
Format profile : [email protected]
Format settings, CABAC : Yes
Format settings, ReFrames : 11 frames
Codec ID : V_MPEG4/ISO/AVC
Duration : 2h 1mn
Bit rate : 4 000 Kbps
Width : 1 280 pixels
Height : 546 pixels
Display aspect ratio : 2.35:1
Frame rate mode : Constant
Frame rate : 23.976 (24000/1001) fps
Color space : YUV
Chroma subsampling : 4:2:0
Bit depth : 8 bits
Scan type : Progressive
Bits/(Pixel*Frame) : 0.239
Stream size : 3.40 GiB (81%)
Title : The.Sons.of.Katie.Elder.1965.720p.HDTV.x264.DD5.1-FGT
Writing library : x264 core 120 r2145 748fe16
Encoding settings : cabac=1 / ref=11 / deblock=1:-3:-3 / analyse=0x3:0x133 / me=umh / subme=10 / psy=1 / psy_rd=1.15:0.15 / mixed_ref=1 / me_range=32 / chroma_me=1 / trellis=2 / 8x8dct=1 / cqm=0 / deadzone=21,11 / fast_pskip=0 / chroma_qp_offset=-3 / threads=12 / sliced_threads=0 / nr=0 / decimate=0 / interlaced=0 / bluray_compat=0 / constrained_intra=0 / bframes=8 / b_pyramid=2 / b_adapt=2 / b_bias=0 / direct=3 / weightb=1 / open_gop=0 / weightp=2 / keyint=250 / keyint_min=23 / scenecut=40 / intra_refresh=0 / rc_lookahead=60 / rc=2pass / mbtree=1 / bitrate=4000 / ratetol=1.0 / qcomp=0.75 / qpmin=0 / qpmax=69 / qpstep=4 / cplxblur=20.0 / qblur=0.5 / vbv_maxrate=50000 / vbv_bufsize=62500 / nal_hrd=none / ip_ratio=1.40 / aq=1:0.80
Language : English
Default : Yes
Forced : No
Audio #1
ID : 2
Format : AC-3
Format/Info : Audio Coding 3
Mode extension : CM (complete main)
Format settings, Endianness : Big
Codec ID : A_AC3
Duration : 2h 1mn
Bit rate mode : Constant
Bit rate : 192 Kbps
Channel(s) : 2 channels
Channel positions : Front: L R
Sampling rate : 48.0 KHz
Frame rate : 31.250 fps (1536 spf)
Compression mode : Lossy
Stream size : 167 MiB (4%)
Title : MVO Paramount Channel
Language : Russian
Default : Yes
Forced : No
Audio #2
ID : 3
Format : AC-3
Format/Info : Audio Coding 3
Mode extension : CM (complete main)
Format settings, Endianness : Big
Codec ID : A_AC3
Duration : 2h 1mn
Bit rate mode : Constant
Bit rate : 192 Kbps
Channel(s) : 2 channels
Channel positions : Front: L R
Sampling rate : 48.0 KHz
Frame rate : 31.250 fps (1536 spf)
Compression mode : Lossy
Stream size : 167 MiB (4%)
Title : VO Jack Action
Language : Russian
Default : No
Forced : No
Audio #3
ID : 4
Format : AC-3
Format/Info : Audio Coding 3
Mode extension : CM (complete main)
Format settings, Endianness : Big
Codec ID : A_AC3
Duration : 2h 1mn
Bit rate mode : Constant
Bit rate : 192 Kbps
Channel(s) : 2 channels
Channel positions : Front: L R
Sampling rate : 48.0 KHz
Frame rate : 31.250 fps (1536 spf)
Compression mode : Lossy
Stream size : 167 MiB (4%)
Title : VO
Language : Russian
Default : No
Forced : No
Audio #4
ID : 5
Format : AC-3
Format/Info : Audio Coding 3
Mode extension : CM (complete main)
Format settings, Endianness : Big
Codec ID : A_AC3
Duration : 2h 1mn
Bit rate mode : Constant
Bit rate : 384 Kbps
Channel(s) : 2 channels
Channel positions : Front: L R
Sampling rate : 48.0 KHz
Frame rate : 31.250 fps (1536 spf)
Compression mode : Lossy
Stream size : 335 MiB (8%)
Language : English
Default : No
Forced : No
Text #1
ID : 6
Format : UTF-8
Codec ID : S_TEXT/UTF8
Codec ID/Info : UTF-8 Plain Text
Duration : 1h 58mn
Bit rate : 91 bps
Count of elements : 977
Stream size : 79.3 KiB (0%)
Language : Russian
Default : No
Forced : No
Text #2
ID : 7
Format : UTF-8
Codec ID : S_TEXT/UTF8
Codec ID/Info : UTF-8 Plain Text
Duration : 1h 58mn
Bit rate : 49 bps
Count of elements : 971
Stream size : 43.0 KiB (0%)
Language : English
Default : No
Forced : No

[4.22 GB] Скачать / Download