Тинглер / Вибратор / The Tingler (Уильям Касл / William Castle) VO + Sub Eng + Original Eng - Скачать

Страна: США
Жанр: фантастика, ужасы, триллер
Год выпуска: 1959
Продолжительность: 01:21:27

Перевод: Одноголосый закадровый
Субтитры: английские

Оригинальная аудиодорожка: английский

Режиссер: Уильям Касл / William Castle

В ролях: Винсент Прайс, Джудит Эвелин, Дэррил Хикмэн, Патрисия Катс, Памела Линкольн, Филлип Кулидж

Описание:
Судебный медицинский эксперт Уоррен занимается исследованиями человеческой эмоции — страх. Он верит, что это сила, которая есть в каждом из нас. Более того, он считает, что страх — это создание, которое растет в области спинного мозга по мере того, как мы боимся или пугаемся.

Сэмпл:Скачать

Тип релиза: BDRip 720p
Контейнер: MKV

Видео: 1 280×720 (16:9); 5 500 Kbps; 24.000 fps; 0.249 bpp
Аудио 1: Russian; AC3; 48.0 KHz; 2ch; 192 Kbps
Аудио 2: English; FLAC; 48.0 KHz; 2ch; 282Kbps

fullhd, torrent, торрент, субтитры, на русском, hd, полная версия, высокое качество, subs, кино, download, бесплатно, видео, фильм, оригинал, скачать

Format : Matroska
Format version : Version 4 / Version 2
File size : 3.40 GiB
Duration : 1 h 21 min
Overall bit rate mode : Variable
Overall bit rate : 5 976 kb/s
Encoded date : UTC 2016-11-17 16:43:01
Writing application : mkvmerge v8.3.0 ('Over the Horizon') 64bit
Writing library : libebml v1.3.1 + libmatroska v1.4.2
Attachments : poster.jpg
Video
ID : 1
Format : AVC
Format/Info : Advanced Video Codec
Format profile : [email protected]
Format settings, CABAC : Yes
Format settings, ReFrames : 9 frames
Codec ID : V_MPEG4/ISO/AVC
Duration : 1 h 21 min
Bit rate : 5 500 kb/s
Width : 1 280 pixels
Height : 720 pixels
Display aspect ratio : 16:9
Frame rate mode : Constant
Frame rate : 24.000 FPS
Color space : YUV
Chroma subsampling : 4:2:0
Bit depth : 8 bits
Scan type : Progressive
Bits/(Pixel*Frame) : 0.249
Stream size : 3.13 GiB (92%)
Writing library : x264 core 148 r2705 3f5ed56
Encoding settings : cabac=1 / ref=9 / deblock=1:-3:-3 / analyse=0x3:0x133 / me=umh / subme=10 / psy=1 / psy_rd=1.05:0.00 / mixed_ref=1 / me_range=32 / chroma_me=1 / trellis=2 / 8x8dct=1 / cqm=0 / deadzone=21,11 / fast_pskip=0 / chroma_qp_offset=-2 / threads=11 / lookahead_threads=1 / sliced_threads=0 / slices=4 / nr=0 / decimate=0 / interlaced=0 / bluray_compat=0 / constrained_intra=0 / bframes=8 / b_pyramid=2 / b_adapt=2 / b_bias=0 / direct=3 / weightb=1 / open_gop=0 / weightp=2 / keyint=250 / keyint_min=24 / scenecut=40 / intra_refresh=0 / rc_lookahead=40 / rc=2pass / mbtree=0 / bitrate=5500 / ratetol=1.0 / qcomp=0.65 / qpmin=0 / qpmax=51 / qpstep=4 / cplxblur=20.0 / qblur=0.5 / vbv_maxrate=62500 / vbv_bufsize=78125 / nal_hrd=none / filler=0 / ip_ratio=1.30 / pb_ratio=1.20 / aq=3:0.75
Language : English
Default : Yes
Forced : No
Audio #1
ID : 2
Format : AC-3
Format/Info : Audio Coding 3
Mode extension : CM (complete main)
Format settings, Endianness : Big
Codec ID : A_AC3
Duration : 1 h 21 min
Bit rate mode : Constant
Bit rate : 192 kb/s
Channel(s) : 2 channels
Channel positions : Front: L R
Sampling rate : 48.0 kHz
Frame rate : 31.250 FPS (1536 spf)
Bit depth : 16 bits
Compression mode : Lossy
Stream size : 112 MiB (3%)
Title : VO
Language : Russian
Default : Yes
Forced : No
Audio #2
ID : 3
Format : FLAC
Format/Info : Free Lossless Audio Codec
Codec ID : A_FLAC
Duration : 1 h 21 min
Bit rate mode : Variable
Bit rate : 282 kb/s
Channel(s) : 2 channels
Channel positions : Front: L R
Sampling rate : 48.0 kHz
Frame rate : 11.719 FPS (4096 spf)
Bit depth : 16 bits
Stream size : 164 MiB (5%)
Title : English FLAC 2.0 @ 283 Kbps
Writing library : libFLAC 1.2.1 (UTC 2007-09-17)
Language : English
Default : No
Forced : No
Text #1
ID : 4
Format : UTF-8
Codec ID : S_TEXT/UTF8
Codec ID/Info : UTF-8 Plain Text
Duration : 1 h 20 min
Bit rate : 49 b/s
Count of elements : 807
Stream size : 29.6 KiB (0%)
Title : English
Language : English
Default : No
Forced : No
Text #2
ID : 5
Format : UTF-8
Codec ID : S_TEXT/UTF8
Codec ID/Info : UTF-8 Plain Text
Duration : 1 h 21 min
Bit rate : 59 b/s
Count of elements : 874
Stream size : 35.1 KiB (0%)
Title : English SDH
Language : English
Default : No
Forced : No
Menu
00:00:00.000 : en:1
00:03:08.875 : en:2
00:07:21.167 : en:3
00:14:00.125 : en:4
00:16:57.833 : en:5
00:20:08.500 : en:6
00:25:57.958 : en:7
00:29:34.500 : en:8
00:33:42.417 : en:9
00:41:26.958 : en:10
00:47:04.500 : en:11
00:51:09.375 : en:12
00:52:54.500 : en:13
00:56:35.958 : en:14
01:00:49.500 : en:15
01:03:28.875 : en:16
01:05:42.250 : en:17
01:08:04.542 : en:18
01:11:20.833 : en:19
01:17:55.375 : en:20

[3.4 GB] Скачать / Download