Три дня Кондора / Three Days of the Condor (Сидни Поллак / Sydney Pollack) MVO + Dub + Original Eng + Sub Rus, Eng - Скачать

Три дня Кондора / Three Days of the Condor

Страна: США
Жанр: политический триллер, драма, детектив
Год выпуска: 1975
Продолжительность: 01:57:22
Перевод #1: Профессиональный (многоголосый закадровый) | Universal Pictures Rus
Перевод #2: Профессиональный (дублированный) | СССР
Субтитры: русские, английские
Оригинальная аудиодорожка: английский
Режиссер: Сидни Поллак
В ролях: Роберт Редфорд, Фэй Данауэй, Клифф Робертсон, Макс фон Сюдов, Джон Хаусмен, Эддисон Пауэлл, Уолтер МакДжинн, Тина Чен, Майкл Кэйн, Дон МакГенри
Описание: Работающий в одном из тайных отделов ЦРУ в Нью-Йорке Джо Тэрнер занимается анализом бульварно-детективной литературы, в которой выискивает интересующие ведомство "оригинальные приёмы"
В последний предрождественский рабочий день Тэрнер, вернувшись после обеденного перерыва, с ужасом обнаруживает в конторе трупы своих семи коллег. Он звонит по "аварийному" телефону в дежурную часть ЦРУ. Начальство назначает ему встречу, но она оказывается ловушкой. Тэрнеру остаётся лишь одно - на свой страх и риск выяснить причины устроенной на него охоты...

Тип релиза: BDRemux 1080p, исходник с
Контейнер: MKV
Видео: AVC 1920x1080 (16:9), 23.976 fps, ~38,5 Mbps
Аудио #1: Russian DTS 6ch 48kHz 755Kbps | MVO Universal Pictures Rus
Аудио #2: Russian AC3 2ch 48kHz 384Kbps | Dub СССР
Аудио #3: English TrueHD 5.1 48kHz ~3085Kbps 16-bit | Original
Формат субтитров: softsub (SRT)

видео, субтитры, полная версия, скачать, фильм, высокое качество, torrent, кино, торрент, оригинал, fullhd, на русском, бесплатно, subs, download, hd

General
Complete name : D:\...\Three.Days.of.the.Condor.1975.BDRemux.1080p.AVC.Rus.Eng.mkv
Format : Matroska
File size : 35.1 GiB
Duration : 1h 57mn
Overall bit rate : 42.8 Mbps
Encoded date : UTC 2011-08-16 17:29:37
Writing application : mkvmerge v4.9.1 ('Ich will') сборка от Jul 11 2011 23:53:15
Writing library : libebml v1.2.1 + libmatroska v1.1.1
Video
ID : 1
Format : AVC
Format/Info : Advanced Video Codec
Format profile : [email protected]
Format settings, CABAC : Yes
Format settings, ReFrames : 4 frames
Format settings, GOP : M=2, N=26
Codec ID : V_MPEG4/ISO/AVC
Duration : 1h 57mn
Bit rate mode : Variable
Maximum bit rate : 39.8 Mbps
Width : 1 920 pixels
Height : 1 080 pixels
Display aspect ratio : 16:9
Frame rate : 23.976 fps
Color space : YUV
Chroma subsampling : 4:2:0
Bit depth : 8 bits
Scan type : Progressive
Language : English
Color primaries : BT.709-5, BT.1361, IEC 61966-2-4, SMPTE RP177
Transfer characteristics : BT.709-5, BT.1361
Matrix coefficients : BT.709-5, BT.1361, IEC 61966-2-4 709, SMPTE RP177
Audio #1
ID : 2
Format : DTS
Format/Info : Digital Theater Systems
Codec ID : A_DTS
Duration : 1h 57mn
Bit rate mode : Constant
Bit rate : 755 Kbps
Channel(s) : 6 channels
Channel positions : Front: L C R, Side: L R, LFE
Sampling rate : 48.0 KHz
Bit depth : 24 bits
Compression mode : Lossy
Stream size : 633 MiB (2%)
Title : MVO R5
Language : Russian
Audio #2
ID : 3
Format : AC-3
Format/Info : Audio Coding 3
Format profile : Dolby Digital
Mode extension : CM (complete main)
Codec ID : A_AC3
Duration : 1h 57mn
Bit rate mode : Constant
Bit rate : 384 Kbps
Channel(s) : 2 channels
Channel positions : Front: L R
Sampling rate : 48.0 KHz
Bit depth : 16 bits
Compression mode : Lossy
Stream size : 322 MiB (1%)
Title : Dub USSR
Language : Russian
Audio #3
ID : 4
Format : TrueHD
Codec ID : A_TRUEHD
Duration : 1h 57mn
Bit rate mode : Variable
Maximum bit rate : 3 960 Kbps
Channel(s) : 6 channels
Channel positions : Front: L C R, Side: L R, LFE
Sampling rate : 48.0 KHz
Compression mode : Lossless
Title : Original
Language : English
Text #1
ID : 5
Format : UTF-8
Codec ID : S_TEXT/UTF8
Codec ID/Info : UTF-8 Plain Text
Language : Russian
Text #2
ID : 6
Format : UTF-8
Codec ID : S_TEXT/UTF8
Codec ID/Info : UTF-8 Plain Text
Language : English

[35.11 GB] Скачать / Download