Удел человеческий III / Условия человеческого существования III / Ningen no joken III / The Human Condition III (Масаки Кобаяси / Masaki Kobayashi) AVO (Кузнецов) - Скачать

Страна: Япония
Жанр: драма, военный, исторический
Год выпуска: 1961
Продолжительность: 03:10:13
Перевод: Авторский (одноголосый закадровый) - Сергей Кузнецов
Субтитры: нет

Режиссер:Масаки Кобаяси / Masaki Kobayashi
В ролях:Татсуя Накадай, Мичию Аратама, Тамао Накамура, Юсуке Кавазу, Тисю Рю, Такэтоси Найто, Кёко Кисида, Рейко Хитоми, Кэйдзиро Мородзуми, Нобуо Канэко, Фудзио Суга, Татсуя Ишигуро, Кадзуо Китамура, Такахара Тосио
Описание:Заключительный фильм трилогии Масаки Кобаяси по роману Дзюмпэя Гомикавы.
Второй фильм оканчивается битвой с советскими войсками, после которой от отряда стрелков старшего рядового Кейджи остаются лишь 3 человека. В третьей части трилогии они пытаются пробиться к своим, но линия фронта движется гораздо быстрее них. Скоро трио оказывается в глубоком тылу. Надежда одна – прорваться на юг к океану, откуда есть шанс отправиться домой. Путь не близкий, а у них нет ни карты, ни компаса, ни запаса еды. Повсюду шныряют русские разведотряды, а вооружившиеся ружьями с убитых китайские крестьяне жаждут возмездия.
Первая половина заключительной части представляет собой шикарный приключенческий боевик. Смотрится это с огромным интересом и сочувствием к главным героям, которые не хотят или боятся сдаваться в плен. Кейджи и здесь умудряется нажить себе врагов и вляпаться во множество неприятностей, из которых, правда, выходит с честью. Но таков удел честного человека в этом несправедливом мире, созданном мировой войной, – страдать всю свою жизнь за себя и за остальных. Вторая половина очень тяжелая по эмоциональному восприятию. Побежденных японцев невероятно жалко, несмотря на то, что многие из них заслужили подобную участь. Последние 10 минут вообще невыносимы и оставляют горькое послевкусие на долгое время после просмотра. По эмоциональному восприятию финал можно сравнить с концовкой «Человека-слона» (1980) Дэвида Линча. Любопытно, что красная армия у Кобаяси выглядит даже слишком положительно. Несмотря на несколько неприятных эпизодов, русские военные показаны просто ангелами, по сравнению с теми же японцами. Судя по всему, это было сделано для контраста. Япония переживает о жестоких действиях, совершенных армией на территории Китая, и показывают их без прикрас. Что ж, можно только снять шляпу перед нацией, которая искренне сожалеет о своих военных преступлениях, выражая это в литературе и кинематографе.
Благодаря подобным ходам, честности и реалистичности заключительная часть трилогии просто шедевральна и ставит жирную точку во всей истории, заставляя заново переосмыслить все с самой завязки. Первые два фильма не оставляют такого впечатления, но обладают великолепной картинкой и отлично держат зрительский интерес. Кроме того, Тацуя Накадаи блестяще справлялся со сложной ролью, где малейшее переигрывание сразу сделало бы его персонаж карикатурным. Кобаяси кое-что позаимствовал из "Полевых огней" (1958) Кона Итикавы и немного переборщил с политическими размышлениями, но это никак не отражается на общем ощущении от просмотра. Гениальный эпик.


Качество видео: BDRip
Формат видео: AVI
Видео: 720x304 (2.37:1), 23.976 fps, XviD build 73 ~897 kbps avg, 0.17 bit/pixel
Аудио: 48 kHz, AC3 Dolby Digital, 2/0 (L,R) ch, ~192 kbps

:

torrent, fullhd, кино, hd, торрент, оригинал, видео, полная версия, на русском, subs, субтитры, фильм, бесплатно, download, высокое качество, скачать

General
Complete name : H:\Ningen.no.joken_III.1961.bdrip_[1.46]_[teko].avi
Format : AVI
Format/Info : Audio Video Interleave
File size : 1.46 GiB
Duration : 3h 10mn
Overall bit rate : 1 099 Kbps
Writing application : VirtualDubMod 1.5.10.3 | www.virtualdub-fr.org || (build 2550/release)
Writing library : VirtualDubMod build 2550/release
Video
ID : 0
Format : MPEG-4 Visual
Format profile : Advanced [email protected]
Format settings, BVOP : 2
Format settings, QPel : No
Format settings, GMC : No warppoints
Format settings, Matrix : Custom
Codec ID : XVID
Codec ID/Hint : XviD
Duration : 3h 10mn
Bit rate : 898 Kbps
Width : 720 pixels
Height : 304 pixels
Display aspect ratio : 2.35:1
Frame rate : 23.976 (23976/1000) fps
Color space : YUV
Chroma subsampling : 4:2:0
Bit depth : 8 bits
Scan type : Progressive
Compression mode : Lossy
Bits/(Pixel*Frame) : 0.171
Stream size : 1.19 GiB (82%)
Writing library : XviD 73
Audio
ID : 1
Format : AC-3
Format/Info : Audio Coding 3
Mode extension : CM (complete main)
Format settings, Endianness : Big
Codec ID : 2000
Duration : 3h 10mn
Bit rate mode : Constant
Bit rate : 192 Kbps
Channel(s) : 2 channels
Channel positions : Front: L R
Sampling rate : 48.0 KHz
Frame rate : 31.250 fps (1536 spf)
Compression mode : Lossy
Stream size : 261 MiB (17%)
Alignment : Split accross interleaves
Interleave, duration : 42 ms (1.00 video frame)
Interleave, preload duratio : 500 ms

[1.46 GB] Скачать / Download