В случае несчастья / En cas de malheur / Love Is My Profession (Клод Отан-Лара / Claude Autant-Lara) MVO + Sub Rus + Original Fre - Скачать

Страна:Франция,Италия
Студия:Union Cinématographique Lyonnaise (UCIL), Iéna Productions, CEI Incom
Жанр: драма, мелодрама, криминал
Год выпуска: 1958
Продолжительность: 01:56:33
Перевод: Профессиональный (многоголосый закадровый)
Субтитры:русские
Оригинальная аудиодорожка:французский
Режиссер: Клод Отан-Лара / Claude Autant-Lara
В ролях: Жан Габен, Брижит Бардо, Эдвиж Фёйер, Николь Берже, Мадлен Барбюле, Габриель Фонтан, Жак Кланси, Анник Альере, Сюзанн Грэй, Эдит Серу ...
Описание: Адвокат Андре Гобийо — немолодой, импозантный, преуспевающий и женатый мужчина — и все это он готов принести в жертву ради всепоглощающей страсти к юной прелестнице. Иветт попалась на вооруженном ограблении ювелирной лавки и ей грозит тюрьма.
Она является к дорогому адвокату, предлагая себя в уплату за услуги. Андре знает, что у нее есть любовник и она ведет двойную игру, но он целиком оказывается во власти ее чар.
Доп. информация: ИсходникиEn cas de malheur.1957.HDTV.1080p.Untouchedнайдены в сети.
Примерно в районе 00:11:34 присутствуют битые кадры.

Спасибо за рус. дорожку и субтитры bm11

En cas de malheur_(1958)_1080i HDTV_Sample_.mkv

Тип релиза: HDTV 1080i
Контейнер: MKV
Видео: x264, 1920x1080, 16:9, 25.000 fps, 6 304 Kbps, Progressive, 0.122 Bits/(Pixel*Frame)
Аудио 1: 48 kHz, AC3 Dolby Digital, 2/0 (L,R) ch, ~ 192 kbps,Русский
Аудио 2: 48 kHz, AC3 Dolby Digital, 2/0 (L,R) ch, ~ 384 kbps,французский
Формат субтитров:softsub (SRT)

высокое качество, видео, полная версия, download, субтитры, фильм, оригинал, торрент, на русском, бесплатно, hd, скачать, torrent, кино, subs, fullhd

General
Unique ID : 183952574262023833373226913975110153569 (0x8A63FA24004F2FF1840D2A3593573561)
Complete name : I:\111\z_D_Disk\En cas de malheur_(1958)_1080i HDTV_.mkv
Format : Matroska
Format version : Version 4 / Version 2
File size : 5.71 GiB
Duration : 1 h 56 min
Overall bit rate : 7 020 kb/s
Encoded date : UTC 2016-09-13 06:04:24
Writing application : mkvmerge v8.6.1 ('Flying') 64bit
Writing library : libebml v1.3.3 + libmatroska v1.4.4
Video
ID : 1
Format : AVC
Format/Info : Advanced Video Codec
Format profile : [email protected]
Format settings, CABAC : Yes
Format settings, ReFrames : 4 frames
Codec ID : V_MPEG4/ISO/AVC
Duration : 1 h 56 min
Bit rate : 6 304 kb/s
Width : 1 920 pixels
Height : 1 080 pixels
Display aspect ratio : 16:9
Frame rate mode : Constant
Frame rate : 25.000 FPS
Color space : YUV
Chroma subsampling : 4:2:0
Bit depth : 8 bits
Scan type : MBAFF
Scan type, store method : Interleaved fields
Scan order : Top Field First
Bits/(Pixel*Frame) : 0.122
Stream size : 5.13 GiB (90%)
Title : En cas de malheur_(1958)_1080i HDTV_[Muxed_by_rjhlb777]
Language : French
Default : Yes
Forced : No
Color range : Limited
Color primaries : BT.709
Transfer characteristics : BT.709
Matrix coefficients : BT.709
Audio #1
ID : 2
Format : AC-3
Format/Info : Audio Coding 3
Mode extension : CM (complete main)
Format settings, Endianness : Big
Codec ID : A_AC3
Duration : 1 h 56 min
Bit rate mode : Constant
Bit rate : 192 kb/s
Channel(s) : 2 channels
Channel positions : Front: L R
Sampling rate : 48.0 kHz
Frame rate : 31.250 FPS (1536 spf)
Compression mode : Lossy
Stream size : 160 MiB (3%)
Title : MVO
Language : Russian
Default : Yes
Forced : No
Audio #2
ID : 3
Format : AC-3
Format/Info : Audio Coding 3
Mode extension : CM (complete main)
Format settings, Endianness : Big
Codec ID : A_AC3
Duration : 1 h 56 min
Bit rate mode : Constant
Bit rate : 384 kb/s
Channel(s) : 2 channels
Channel positions : Front: L R
Sampling rate : 48.0 kHz
Frame rate : 31.250 FPS (1536 spf)
Compression mode : Lossy
Stream size : 320 MiB (5%)
Title : Original
Language : French
Default : No
Forced : No
Text
ID : 4
Format : UTF-8
Codec ID : S_TEXT/UTF8
Codec ID/Info : UTF-8 Plain Text
Language : Russian
Default : No
Forced : No

[5.71 GB] Скачать / Download