Веревка / Rope (Альфред Хичкок / Alfred Hitchcock) Dub + 3x MVO + Sub Rus, Eng + Original Eng - Скачать

Alfred Hitchcock Blu-ray Collection

Год выпуска: 1948
Страна: США
Производство: Warner Bros. Pictures / Transatlantic Pictures
Жанр: Драма, Криминал, Детектив
Продолжительность: 01:20:41
Перевод: Профессиональный дублированный, Профессиональный многоголосый закадровый (3-х видов)
Субтитры: Русски, английские

Режиссер: Альфред Хичкок / Alfred Hitchcock
В ролях: Джеймс Стюарт (James Stewart), Джон Долл (John Dall), Фарли Грэйнджер (Farley Granger), Седрик Хардвик (Cedric Hardwicke), Джоэн Чэндлер (Joan Chandler), Констанс Колльер (Constance Collier), Дуглас Дик (Douglas Dick), Эдит Эвансон (Edith Evanson), Дик Хоган (Dick Hogan).

Описание: Двое молодых людей, Брэндон Шоу и Филлип Морган без всякой причины, для развлечения убивают своего приятеля-сокурсника, Девида Кентли, задушив верёвкой. Спрятав тело в сундук, Брендон и Филлип устраивают вечеринку в той же квартире. Среди приглашенных — отец Девида, его невеста Жанет и их преподаватель Руперт. В ходе вечеринки Филипп постепенно осознает весь ужас содеянного, а Руперт начинает подозревать неладное…

Тип релиза: BDRip 720p (LiNG)
Контейнер: MKV
Видео: x264, 972x720, ~15'000 kbps at 23.976 fps
Аудио#1: Russian, 48 kHz, DTS, 2/0 (L,R) ch, ~448.00 kbps avg |Профессиональный дублированный, BD EUR|
Аудио#2: Russian: 48 kHz, AC3, 2/0 (L,R) ch, ~192.00 kbps avg |Профессиональный многоголосый закадровый, SomeWax|
Аудио#3: Russian: 48 kHz, AC3, 2/0 (L,R) ch, ~192.00 kbps avg |Профессиональный многоголосый закадровый, НТВ+|
Аудио#4: Russian: 48 kHz, AC3, 2/0 (L,R) ch, ~192.00 kbps avg |Профессиональный многоголосый закадровый, ОРТ|
Аудио#5: English: 48 kHz/24-bit, FLAC 2.0, ~457.00 kbps avg |Оригинал|
Субтитры: Russian (BD, forced, SomeWax), English
Семпл: http://www.sendspace.com/file/7m9yk1

xamster писал(а):
  • Сохранены оригинальные чаптеры как на Blu-ray.
  • За исходник дорожки SomeWax спасибо Галлер.
  • За работу над субтитрами SomeWax спасибо antikillW.
  • За исходники дорожки ОРТ спасибо denismgn1987 и julia_w. Обе были не очень хорошего качества, была выбрана та, что казалась чуть лучше.
  • За исходник дорожки НТВ+ спасибо olegsa.
x264 [info]: frame I:468 Avg QP:16.93 size:186431
x264 [info]: frame P:18847 Avg QP:19.40 size:115876
x264 [info]: frame B:96774 Avg QP:21.92 size: 70337
x264 [info]: consecutive B-frames: 0.6% 0.3% 1.7% 4.4% 9.3% 52.9% 9.5% 3.4% 5.6% 4.7% 4.1% 2.3% 1.2%
x264 [info]: kb/s:14999.14

кино, оригинал, subs, высокое качество, фильм, скачать, субтитры, видео, торрент, на русском, download, hd, полная версия, torrent, fullhd, бесплатно

Format : Matroska
Format version : Version 2
File size : 9.29 GiB
Duration : 1h 20mn
Overall bit rate mode : Variable
Overall bit rate : 16.5 Mbps
Movie name : Rope (1948) - Release for HDCLUB (LiNG)
Encoded date : UTC 2012-11-13 17:21:58
Writing application : mkvmerge v5.8.0 ('No Sleep / Pillow') built on Sep 2 2012 15:37:04
Writing library : libebml v1.2.3 + libmatroska v1.3.0
Video
ID : 1
Format : AVC
Format/Info : Advanced Video Codec
Format profile : [email protected]
Format settings, CABAC : Yes
Format settings, ReFrames : 11 frames
Codec ID : V_MPEG4/ISO/AVC
Duration : 1h 20mn
Nominal bit rate : 15.0 Mbps
Width : 972 pixels
Height : 720 pixels
Display aspect ratio : 4:3
Frame rate mode : Constant
Frame rate : 23.976 fps
Color space : YUV
Chroma subsampling : 4:2:0
Bit depth : 8 bits
Scan type : Progressive
Bits/(Pixel*Frame) : 0.894
Title : Rope.1948.720p.BluRay.4xRus.Eng.ac3.dts.flac.sub.HDCLUB
Writing library : x264 core 125 r2208 d9d2288
Encoding settings : cabac=1 / ref=11 / deblock=1:-3:-3 / analyse=0x3:0x133 / me=umh / subme=11 / psy=1 / psy_rd=0.90:0.00 / mixed_ref=1 / me_range=48 / chroma_me=1 / trellis=2 / 8x8dct=1 / cqm=0 / deadzone=21,11 / fast_pskip=0 / chroma_qp_offset=-2 / threads=12 / lookahead_threads=2 / sliced_threads=0 / nr=0 / decimate=0 / interlaced=0 / bluray_compat=0 / constrained_intra=0 / bframes=12 / b_pyramid=2 / b_adapt=2 / b_bias=0 / direct=3 / weightb=1 / open_gop=0 / weightp=2 / keyint=250 / keyint_min=23 / scenecut=40 / intra_refresh=0 / rc_lookahead=40 / rc=2pass / mbtree=1 / bitrate=15000 / ratetol=1.0 / qcomp=0.60 / qpmin=0 / qpmax=69 / qpstep=4 / cplxblur=20.0 / qblur=0.5 / ip_ratio=1.40 / aq=2:0.90
Language : English
Default : Yes
Forced : No
Audio #1
ID : 2
Format : DTS
Format/Info : Digital Theater Systems
Mode : 16
Format settings, Endianness : Big
Codec ID : A_DTS
Duration : 1h 20mn
Bit rate mode : Constant
Bit rate : 447 Kbps
Channel(s) : 2 channels
Channel positions : Front: L R
Sampling rate : 48.0 KHz
Bit depth : 24 bits
Compression mode : Lossy
Stream size : 258 MiB (3%)
Title : dts 2.0 @ 448 kbps |bluray, dub|
Language : Russian
Default : Yes
Forced : No
Audio #2
ID : 3
Format : AC-3
Format/Info : Audio Coding 3
Mode extension : CM (complete main)
Format settings, Endianness : Big
Codec ID : A_AC3
Duration : 1h 20mn
Bit rate mode : Constant
Bit rate : 192 Kbps
Channel(s) : 2 channels
Channel positions : Front: L R
Sampling rate : 48.0 KHz
Bit depth : 16 bits
Compression mode : Lossy
Stream size : 111 MiB (1%)
Title : ac3 2.0 @ 192 kbps |MVO, SomeWax|
Language : Russian
Default : No
Forced : No
Audio #3
ID : 4
Format : AC-3
Format/Info : Audio Coding 3
Mode extension : CM (complete main)
Format settings, Endianness : Big
Codec ID : A_AC3
Duration : 1h 20mn
Bit rate mode : Constant
Bit rate : 192 Kbps
Channel(s) : 2 channels
Channel positions : Front: L R
Sampling rate : 48.0 KHz
Bit depth : 16 bits
Compression mode : Lossy
Stream size : 111 MiB (1%)
Title : ac3 2.0 @ 192 kbps |MVO, НТВ+|
Language : Russian
Default : No
Forced : No
Audio #4
ID : 5
Format : AC-3
Format/Info : Audio Coding 3
Mode extension : CM (complete main)
Format settings, Endianness : Big
Codec ID : A_AC3
Duration : 1h 20mn
Bit rate mode : Constant
Bit rate : 192 Kbps
Channel(s) : 2 channels
Channel positions : Front: L R
Sampling rate : 48.0 KHz
Bit depth : 16 bits
Compression mode : Lossy
Stream size : 111 MiB (1%)
Title : ac3 2.0 @ 192 kbps |MVO, ОРТ|
Language : Russian
Default : No
Forced : No
Audio #5
ID : 6
Format : FLAC
Format/Info : Free Lossless Audio Codec
Codec ID : A_FLAC
Duration : 1h 20mn
Bit rate mode : Variable
Channel(s) : 2 channels
Sampling rate : 48.0 KHz
Bit depth : 24 bits
Title : flac 2.0 @ 457 kbps
Writing library : libFLAC 1.2.1 (UTC 2007-09-17)
Language : English
Default : No
Forced : No
Text #1
ID : 7
Format : UTF-8
Codec ID : S_TEXT/UTF8
Codec ID/Info : UTF-8 Plain Text
Title : Blu-Ray, Forced
Language : Russian
Default : Yes
Forced : No
Text #2
ID : 8
Format : UTF-8
Codec ID : S_TEXT/UTF8
Codec ID/Info : UTF-8 Plain Text
Title : Blu-Ray, Full
Language : Russian
Default : No
Forced : No
Text #3
ID : 9
Format : UTF-8
Codec ID : S_TEXT/UTF8
Codec ID/Info : UTF-8 Plain Text
Title : SomeWax
Language : Russian
Default : No
Forced : No
Text #4
ID : 10
Format : UTF-8
Codec ID : S_TEXT/UTF8
Codec ID/Info : UTF-8 Plain Text
Language : English
Default : No
Forced : No
Menu
00:00:00.000 : en:00:00:00.000
00:01:57.743 : en:00:01:57.743
00:09:27.859 : en:00:09:27.859
00:11:42.327 : en:00:11:42.327
00:13:36.441 : en:00:13:36.441
00:17:13.658 : en:00:17:13.658
00:23:34.038 : en:00:23:34.038
00:27:10.587 : en:00:27:10.587
00:28:16.653 : en:00:28:16.653
00:33:12.282 : en:00:33:12.282
00:34:24.062 : en:00:34:24.062
00:39:59.188 : en:00:39:59.188
00:44:25.454 : en:00:44:25.454
00:46:42.091 : en:00:46:42.091
00:51:57.072 : en:00:51:57.072
01:03:18.753 : en:01:03:18.753
01:13:21.355 : en:01:13:21.355
01:20:10.639 : en:01:20:10.639
source...................................................................................................................................encode


[9.29 GB] Скачать / Download