Восстание Кейна / The Caine Mutiny (Эдвард Дмитрик / Edward Dmytryk) MVO (DVD Магия) + Original (Eng) + Commentary (Eng) + Sub (Eng) - Скачать

Восстание Кейна / The Caine Mutiny«As big as the ocean!»

Страна: США
Жанр: драма, мелодрама, военный
Год выпуска: 1954
Продолжительность: 02:04:35

Перевод: Профессиональный (многоголосый, закадровый) DVD Магия
Оригинальная аудиодорожка: English
+ English Commentary
Субтитры: English

Режиссер: Эдвард Дмитрик / Edward Dmytryk
В ролях: Хамфри Богарт, Хосе Феррер, Ван Джонсон, Фред МакМюррэй, Роберт Френсис, Мэй Винн, Том Талли, Э. Г. Маршалл, Артур Франц, Ли Марвин

Описание: Фрэнсис, Джонсон и МакМюррэй служат на одном эсминце в начале 2-ой Мировой Войны. Новый капитан сразу же железной рукой устанавливает свою власть и обнаруживает явный невроз. Когда он схватывается с Джонсоном, последнего отдают по трибунал, и Хосе Феррер должен его защищать.

IMDB | КиноПоиск | Сэмпл

Качество видео: BDRip 720p | | исх. The Caine Mutiny 1954 1080p Blu-ray AVC DTS-HD MA 5.1
Формат видео: MKV

Видео: AVC, 1280x694 (16:9), 23.976 fps, 9 000 Kbps (0.423 bit/pixel)
Аудио 1: 48 kHz, AC3, 2/0 (L,R) ch, ~192.00 kbps avg | Профессиональный (многоголосый, закадровый) DVD Магия
Аудио 2: 48 kHz/24-bit, DTS, 3/2 (L,C,R,l,r) + LFE ch, ~1510.00 kbps avg | English
Аудио 3: 48 kHz, AC3, 2/0 (L,R) ch, ~192.00 kbps avg | English Commentary

Формат субтитров: softsub (srt)
Главы: есть

торрент, кино, hd, видео, бесплатно, subs, оригинал, скачать, fullhd, полная версия, на русском, download, фильм, torrent, высокое качество, субтитры

General
Unique ID : 177278557536348641345215980596047280968 (0x855E9BB5FD8A07A5B42835EA122A7B48)
Complete name : D:\Фильмы\The.Caine.Mutiny.1954.720p.BluRay.Rus.2xEng-madoff.mkv
Format : Matroska
Format version : Version 2
File size : 9.48 GiB
Duration : 2h 4mn
Overall bit rate : 10.9 Mbps
Movie name : The Caine Mutiny 1954
Encoded date : UTC 2014-01-10 07:47:18
Writing application : mkvmerge v5.7.0 ('The Whirlwind') built on Jul 8 2012 20:08:51
Writing library : libebml v1.2.3 + libmatroska v1.3.0
Video
ID : 1
Format : AVC
Format/Info : Advanced Video Codec
Format profile : [email protected]
Format settings, CABAC : Yes
Format settings, ReFrames : 9 frames
Codec ID : V_MPEG4/ISO/AVC
Duration : 2h 4mn
Bit rate : 9 000 Kbps
Width : 1 280 pixels
Height : 694 pixels
Display aspect ratio : 1.85:1
Frame rate mode : Constant
Frame rate : 23.976 fps
Color space : YUV
Chroma subsampling : 4:2:0
Bit depth : 8 bits
Scan type : Progressive
Bits/(Pixel*Frame) : 0.423
Stream size : 7.65 GiB (81%)
Writing library : x264 core 130 r2273 b3065e6
Encoding settings : cabac=1 / ref=9 / deblock=1:-3:-3 / analyse=0x3:0x133 / me=umh / subme=11 / psy=1 / psy_rd=1.05:0.00 / mixed_ref=1 / me_range=48 / chroma_me=1 / trellis=2 / 8x8dct=1 / cqm=0 / deadzone=21,11 / fast_pskip=0 / chroma_qp_offset=-2 / threads=12 / lookahead_threads=2 / sliced_threads=0 / nr=0 / decimate=1 / interlaced=0 / bluray_compat=0 / constrained_intra=0 / bframes=9 / b_pyramid=2 / b_adapt=2 / b_bias=0 / direct=3 / weightb=1 / open_gop=0 / weightp=2 / keyint=250 / keyint_min=23 / scenecut=40 / intra_refresh=0 / rc_lookahead=40 / rc=2pass / mbtree=0 / bitrate=9000 / ratetol=1.0 / qcomp=0.60 / qpmin=0 / qpmax=69 / qpstep=4 / cplxblur=20.0 / qblur=0.5 / vbv_maxrate=62500 / vbv_bufsize=78125 / nal_hrd=none / ip_ratio=1.40 / pb_ratio=1.30 / aq=1:0.80
Language : English
Default : Yes
Forced : No
Audio #1
ID : 2
Format : AC-3
Format/Info : Audio Coding 3
Mode extension : CM (complete main)
Format settings, Endianness : Big
Codec ID : A_AC3
Duration : 2h 4mn
Bit rate mode : Constant
Bit rate : 192 Kbps
Channel count : 2 channels
Channel positions : Front: L R
Sampling rate : 48.0 KHz
Bit depth : 16 bits
Compression mode : Lossy
Stream size : 171 MiB (2%)
Title : |Многоголосый закадровый, DVD Магия|
Language : Russian
Default : Yes
Forced : No
Audio #2
ID : 3
Format : DTS
Format/Info : Digital Theater Systems
Mode : 16
Format settings, Endianness : Big
Codec ID : A_DTS
Duration : 2h 4mn
Bit rate mode : Constant
Bit rate : 1 509 Kbps
Channel count : 6 channels
Channel positions : Front: L C R, Side: L R, LFE
Sampling rate : 48.0 KHz
Bit depth : 24 bits
Compression mode : Lossy
Stream size : 1.31 GiB (14%)
Language : English
Default : No
Forced : No
Audio #3
ID : 4
Format : AC-3
Format/Info : Audio Coding 3
Mode extension : CM (complete main)
Format settings, Endianness : Big
Codec ID : A_AC3
Duration : 2h 4mn
Bit rate mode : Constant
Bit rate : 192 Kbps
Channel count : 2 channels
Channel positions : Front: L R
Sampling rate : 48.0 KHz
Bit depth : 16 bits
Compression mode : Lossy
Stream size : 171 MiB (2%)
Title : |Commentary|
Language : English
Default : No
Forced : No
Text
ID : 5
Format : UTF-8
Codec ID : S_TEXT/UTF8
Codec ID/Info : UTF-8 Plain Text
Language : English
Default : No
Forced : No
Menu
00:00:00.000 : :00:00:00.000
00:09:11.509 : :00:09:11.509
00:16:12.179 : :00:16:12.179
00:26:37.804 : :00:26:37.804
00:34:12.759 : :00:34:12.759
00:41:23.606 : :00:41:23.606
00:48:53.972 : :00:48:53.972
00:54:28.932 : :00:54:28.932
01:04:37.915 : :01:04:37.915
01:12:26.258 : :01:12:26.258
01:19:15.959 : :01:19:15.959
01:28:44.110 : :01:28:44.110
01:36:52.264 : :01:36:52.264
01:41:12.357 : :01:41:12.357
01:48:10.901 : :01:48:10.901
01:56:05.583 : :01:56:05.583
Сохранены оригинальные чаптеры как на Blu-ray.
Рип от madoff

[9.48 GB] Скачать / Download