Я никогда не пел отцу / I never sang for my father (Гилберт Кэйтс /Gilbert Cates) DVO (СВ-Дубль) + Sub (Eng) + Original (Eng) - Скачать

Страна: США
Студия: Kamel Production, Cloambia Pictures
Жанр: драма
Год выпуска: 1970
Продолжительность: 01:32:11
Перевод: Профессиональный (двухголосый закадровый) -СВ-Дубльпо заказу ВГТРК "Культура"
Субтитры: английские
Оригинальная аудиодорожка: английский
Режиссер: Гилберт Кэйтс /Gilbert Cates
В ролях: Мелвин Дуглас, Джин Хэкмен, Дороти Стикни, Эстелл Парсонс, Элизабет Хаббард, Лавледи Пауэлл, Дэниэл Кийес, Джеймс Карен, Конрад Бэйн, Джон Ричардс, Никки Консулмен, Кэрол Петерсон, Слоун Шелтон, Джеймс Карен, Джин Уильямс, Джин Декстер, Валери Огден, Беверли Пенберти
Описание: Фильм основан на реальной автобиографичной истории сценариста Роберта Андерсона. Всю жизнь Джин Гаррисон конфликтовал со своим строгим, вечно недовольным отцом. А когда вырос, постарался сделать все, чтобы порвать с Томом Гаррисоном любые отношения. Но приходит время, и Джин понимает — он нужен отцу и должен быть с ним…
Доп. информация: В найденный в сетиWEB-захват, содержащий английский оригинал и английские субтитры, добавлена синхронизированнаяНордеромдвухголоска из релиза -filmz.pro/link/53969548.
Сэмпл:https://cloud.mail.ru/public/DRMu/DBAbSKs58
Тип релиза: WEB-DL 1080p
Контейнер: MKV
Видео: 14000 Кбит/сек, AVC 1920*1080 (16:9), 23,976 кадра/сек, CABAC
Аудио: Русский, 192 Кбит/сек, 48,0 КГц, 16 бит, 2 канала, AC-3
Аудио 2: Английский, 224 Кбит/сек, 48,0 КГц, 2 канала, E-AC-3
Формат субтитров: softsub (SRT)

оригинал, торрент, субтитры, на русском, фильм, subs, высокое качество, fullhd, полная версия, hd, бесплатно, скачать, кино, download, torrent, видео

 Общее
Уникальный идентификатор : 46791927486566611907614716702079146847 (0x2333CC2462AB05CE2B85E45FF6195B5F)
Полное имя : I:\MONAR\Художественные фильмы\Зарубежное кино\Я никогда не пел отцу (1970) WEB-DL 1080p.mkv
Формат : Matroska
Версия формата : Version 4 / Version 2
Размер файла : 9,29 Гбайт
Продолжительность : 1 ч. 32 м.
Режим общего битрейта : Переменный
Общий поток : 14,4 Мбит/сек
Название фильма : I never sang for my father (1970)
Дата кодирования : UTC 2017-12-18 16:55:58
Программа кодирования : mkvmerge v19.0.0 ('Brave Captain') 64-bit
Библиотека кодирования : libebml v1.3.5 + libmatroska v1.4.8
Видео
Идентификатор : 1
Формат : AVC
Формат/Информация : Advanced Video Codec
Профиль формата : [email protected]
Настройки формата : CABAC / 4 Ref Frames
Параметр CABAC формата : Да
Параметр RefFrames формата : 4 кадра
Идентификатор кодека : V_MPEG4/ISO/AVC
Продолжительность : 1 ч. 32 м.
Вид битрейта : Переменный
Битрейт : 14,0 Мбит/сек
Максимальный битрейт : 15,0 Мбит/сек
Ширина : 1920 пикселей
Высота : 1080 пикселей
Соотношение сторон : 16:9
Режим частоты кадров : Постоянный
Частота кадров : 23,976 (24000/1001) кадра/сек
Цветовое пространство : YUV
Субдискретизация насыщенности : 4:2:0
Битовая глубина : 8 бит
Тип развёртки : Прогрессивная
Бит/(Пиксели*Кадры) : 0.282
Размер потока : 9,02 Гбайт (97%)
Библиотека кодирования : x264 core 148 r2623 d5b2374
Настройки программы : cabac=1 / ref=4 / deblock=1:-1:-1 / analyse=0x3:0x133 / me=umh / subme=9 / psy=1 / psy_rd=1.00:0.15 / mixed_ref=1 / me_range=24 / chroma_me=1 / trellis=2 / 8x8dct=1 / cqm=0 / deadzone=21,11 / fast_pskip=1 / chroma_qp_offset=-3 / threads=34 / lookahead_threads=5 / sliced_threads=0 / nr=150 / decimate=1 / interlaced=0 / bluray_compat=0 / constrained_intra=0 / bframes=8 / b_pyramid=2 / b_adapt=2 / b_bias=0 / direct=3 / weightb=1 / open_gop=0 / weightp=2 / keyint=120 / keyint_min=61 / scenecut=0 / intra_refresh=0 / rc_lookahead=120 / rc=crf / mbtree=1 / crf=18.0 / qcomp=0.60 / qpmin=0 / qpmax=69 / qpstep=4 / vbv_maxrate=15000 / vbv_bufsize=31250 / crf_max=0.0 / nal_hrd=vbr / filler=0 / ip_ratio=1.40 / aq=3:1.00
Язык : English
Default : Да
Forced : Нет
Цветовой диапазон : Limited
Основные цвета : BT.709
Характеристики трансфера : BT.709
Коэффициенты матрицы : BT.709
Аудио #1
Идентификатор : 2
Формат : AC-3
Формат/Информация : Audio Coding 3
Идентификатор кодека : A_AC3
Продолжительность : 1 ч. 32 м.
Вид битрейта : Постоянный
Битрейт : 192 Кбит/сек
Каналы : 2 канала
Расположение каналов : Front: L R
Частота : 48,0 КГц
Частота кадров : 31,250 кадров/сек (1536 SPF)
Битовая глубина : 16 бит
Метод сжатия : С потерями
Размер потока : 127 Мбайт (1%)
Заголовок : DVO
Язык : Russian
ServiceKind/String : Complete Main
Default : Да
Forced : Нет
Аудио #2
Идентификатор : 3
Формат : E-AC-3
Формат/Информация : Enhanced Audio Coding 3
Идентификатор кодека : A_EAC3
Продолжительность : 1 ч. 32 м.
Вид битрейта : Постоянный
Битрейт : 224 Кбит/сек
Каналы : 2 канала
Расположение каналов : Front: L R
Частота : 48,0 КГц
Частота кадров : 187,500 кадров/сек (256 SPF)
Метод сжатия : С потерями
Размер потока : 148 Мбайт (2%)
Заголовок : original
Язык : English
ServiceKind/String : Complete Main
Default : Нет
Forced : Нет
Текст
Идентификатор : 4
Формат : UTF-8
Идентификатор кодека : S_TEXT/UTF8
Идентификатор кодека/Информация : UTF-8 Plain Text
Продолжительность : 1 ч. 30 м.
Битрейт : 68 бит/сек
ElementCount : 1384
Размер потока : 45,2 Кбайт (0%)
Заголовок : srt
Язык : English
Default : Нет
Forced : Нет

[9.29 GB] Скачать / Download